img image001 image001 image001 image001 image001 image001 image001 image001 image001 image001 image001 image001 image001 image001 image001

Planets Sun Sun Sun
Статистика раздачи
Автор: Снежана | Размер: 5.31 ГБ | Добавлен: 25 июл 2013
Раздают: 0    Качают: 3
Скачать торрент
Скачать торрент
Описание торрента

СообщениеДобавлено: 25 июл 2013 

#77

Информация о фильме
Название: Ностальгия по свету
Оригинальное название: Nostalgia for the Light (Nostalgia de la luz)
Год выхода: 2010
Жанр: Документальный, драма
Режиссер: Патрисио Гусман
В ролях: Гэспэр Кэлас, Лаутаро Нуньес, Луис Енрикес, Мигель, Виктор Гонсалес, Вики Сааведа, Виолета Берриос, Джордж Престон, Валентина Родригес

О фильме:
В пустыню Атакама в Чили ежегодно съезжаются астрономы со всего света, так как это идеальное место для наблюдения над звездами. Безоблачное небо позволяет ученым в буквальном смысле слова заглянуть в самые отдаленные уголки Вселенной… В то время, как всемирно известные ученые устремляют свои взгляды на небо, вокруг них кипит бурная деятельность: земля вокруг обсерваторий изрыта вдоль и поперек несчастными женщинами, пытающими разыскать останки погибших близких.

Страна: Франция, Германия, Чили, Испания, США
Студия: Atacama Productions, Blinker Filmproduktion, Brouillon d'Un Rêve de la SCAM, Cronomedia, Fonds Sud Cinéma, Région Ile-de-France, Sundance Foundation, Televisión Española (TVE), Westdeutscher Rundfunk (WDR)
Продолжительность: 01:30:16
Перевод: Профессиональный двухголосый, студия «Омикрон»|

Перевод и озвучивание осуществлено в рамках сервиса HDClub "Озвучивание". Спонсоры: tambov68, LibrarianA, gelom, r0mka, ddimmon77772, Turko, cat_davinchi, RAUL.

Файл
Кодек: MPEG-4 AVC
Качество: BDRip (720p) SONiDO [PublicHD]
Видео: 5427 Кбит/с, 1280x720, 23.976 кадр/с
Звук: Русский (DTS, 2 ch, 1536 Кбит/с), испанский (DTS, 6 ch, 1536 Кбит/с)
Субтитры: Russian (надписи), английские
Общее
Уникальный идентификатор : 189403117195428421110615716401545808265 (0x8E7DB6A7B82F5ED897FC85B2429D0989)
Полное имя : Nostalgia.for.the.Light.2010.BDRip.720p.mkv
Формат : Matroska
Версия формата : Version 4 / Version 2
Размер файла : 5,31 Гбайт
Продолжительность : 1 ч. 30 м.
Общий поток : 8429 Кбит/сек
Название фильма : Created by DeathN2 for Кинозал.ТВ
Дата кодирования : UTC 2013-03-16 07:39:29
Программа кодирования : mkvmerge v6.1.0 ('Old Devil') built on Mar 2 2013 14:32:37
Библиотека кодирования : libebml v1.3.0 + libmatroska v1.4.0

Видео
Идентификатор : 1
Формат : AVC
Формат/Информация : Advanced Video Codec
Профиль формата : High@L4.1
Параметр CABAC формата : Да
Параметр ReFrames формата : 5 кадров
Идентификатор кодека : V_MPEG4/ISO/AVC
Продолжительность : 1 ч. 30 м.
Битрейт : 5427 Кбит/сек
Ширина : 1280 пикселей
Высота : 720 пикселей
Соотношение сторон : 16:9
Режим частоты кадров : Постоянный
Частота кадров : 25,000 кадров/сек
Цветовое пространство : YUV
Субдискретизация насыщенности : 4:2:0
Битовая глубина : 8 бит
Тип развёртки : Прогрессивная
Бит/(Пиксели*Кадры) : 0.236
Размер потока : 3,31 Гбайт (62%)
Заголовок : Nostalgia.for.the.Light.2010.720p.BluRay.x264-SONiDO [PublicHD]
Библиотека кодирования : x264 core 129 r2230 1cffe9f
Настройки программы : cabac=1 / ref=5 / deblock=1:0:0 / analyse=0x3:0x133 / me=umh / subme=7 / psy=1 / psy_rd=1.00:0.00 / mixed_ref=1 / me_range=16 / chroma_me=1 / trellis=1 / 8x8dct=1 / cqm=0 / deadzone=21,11 / fast_pskip=0 / chroma_qp_offset=-2 / threads=12 / lookahead_threads=2 / sliced_threads=0 / nr=0 / decimate=1 / interlaced=0 / bluray_compat=0 / constrained_intra=0 / bframes=3 / b_pyramid=2 / b_adapt=2 / b_bias=0 / direct=3 / weightb=1 / open_gop=0 / weightp=2 / keyint=250 / keyint_min=25 / scenecut=40 / intra_refresh=0 / rc_lookahead=50 / rc=2pass / mbtree=1 / bitrate=5427 / ratetol=1.0 / qcomp=0.60 / qpmin=0 / qpmax=69 / qpstep=4 / cplxblur=20.0 / qblur=0.5 / ip_ratio=1.40 / aq=1:1.00
Язык : English
Default : Да
Forced : Нет

Аудио #1
Идентификатор : 2
Формат : DTS
Формат/Информация : Digital Theater Systems
Режим : 16
Параметр Endianness формата : Big
Идентификатор кодека : A_DTS
Продолжительность : 1 ч. 30 м.
Вид битрейта : Постоянный
Битрейт : 1509 Кбит/сек
Каналы : 2 канала
Расположение каналов : Front: L R
Частота : 48,0 КГц
Битовая глубина : 24 бит
Метод сжатия : С потерями
Размер потока : 974 Мбайт (18%)
Язык : Russian
Default : Да
Forced : Нет

Аудио #2
Идентификатор : 3
Формат : DTS
Формат/Информация : Digital Theater Systems
Режим : 16
Параметр Endianness формата : Big
Идентификатор кодека : A_DTS
Продолжительность : 1 ч. 30 м.
Вид битрейта : Постоянный
Битрейт : 1509 Кбит/сек
Каналы : 6 каналов
Расположение каналов : Front: L C R, Side: L R, LFE
Частота : 48,0 КГц
Битовая глубина : 24 бит
Метод сжатия : С потерями
Размер потока : 974 Мбайт (18%)
Язык : Spanish
Default : Нет
Forced : Нет

Текст #1
Идентификатор : 4
Формат : UTF-8
Идентификатор кодека : S_TEXT/UTF8
Идентификатор кодека/Информация : UTF-8 Plain Text
Язык : Russian
Default : Да
Forced : Нет

Текст #2
Идентификатор : 5
Формат : UTF-8
Идентификатор кодека : S_TEXT/UTF8
Идентификатор кодека/Информация : UTF-8 Plain Text
Язык : English
Default : Нет
Forced : Нет

Меню
00:00:00.000 : en:00:00:00.000
00:05:52.280 : en:00:05:52.280
00:12:25.800 : en:00:12:25.800
00:18:07.880 : en:00:18:07.880
00:24:04.680 : en:00:24:04.680
00:30:15.800 : en:00:30:15.800
00:36:43.760 : en:00:36:43.760
00:42:48.720 : en:00:42:48.720
00:48:14.560 : en:00:48:14.560
00:53:42.840 : en:00:53:42.840
00:58:45.080 : en:00:58:45.080
01:06:06.640 : en:01:06:06.640
01:12:09.280 : en:01:12:09.280
01:17:06.200 : en:01:17:06.200
01:23:57.840 : en:01:23:57.840







   Похожие торренты   Торрент   Размер 
В этой теме нет новых непрочитанных сообщений. Ностальгия по свету / Nostalgia for the Light / Nostalgia de la luz (2010) BDRip 1080p

0 | 2

7.5 ГБ

В этой теме нет новых непрочитанных сообщений. Ностальгия по свету / Nostalgia for the Light / Nostalgia de la luz (2010) BDRip от DeathN2

6 | 2

1.35 ГБ

В этой теме нет новых непрочитанных сообщений. Ностальгирующий критик / Nostalgia Critic (2008-2010) WEBRip-AVC

1 | 1

7.07 ГБ

В этой теме нет новых непрочитанных сообщений. VA - Best 1990s Nostalgia (2015) MP3

351 | 47

940.06 МБ

В этой теме нет новых непрочитанных сообщений. VA - Vinyl Nostalgia 80s (2016) MP3

49 | 3

1.02 ГБ

В этой теме нет новых непрочитанных сообщений. VA - Vertex Nostalgia Daydreamer (2016) MP3

56 | 4

393.53 МБ

В этой теме нет новых непрочитанных сообщений. Annie Lennox - Nostalgia (2014) Mp3

417 | 26

98.67 МБ




Вы не можете начинать темы
Вы не можете отвечать на сообщения
Вы не можете редактировать свои сообщения
Вы не можете удалять свои сообщения
Вы не можете добавлять вложения

Перейти:  
Для Мосгорсуда, Роскомнадзора и рекламодателей: mosgorsud-torrent[собачка]yandex.ru
 Вход
ppkBB3cker v.2 © 2008-2014 @ PPK
[ Time : 2.427s | 14 Queries | GZIP : Off ]

Торрент трекер RUTOR.IN, Не можете зайти на rutor.org? Какой новый адрес рутор? Какое зеркало рутор? Не работает rutor.org и зеркала? Тогда наш торрент специально для вас. Rutor.in неофициальное зеркало rutor. В случае если у Вас заблокирован rutor или вдруг Вы не можете на него зайти, то Вы без труда сможете скачать бесплатно и без рекламы последние новинки кино, игр, сериалов и прочего у нас, на Rutor.in. Не нужно использовать прокси, чтобы зайти на рутор, достаточно воспользоваться нашим ресурсом. Все новые фильмы, игры, сериалы, книги и музыка за 2013 и 2014 годы через торрент бесплатно. Скачивайте фильмы в хорошем качестве, игры для пк, xbox, playstation без регистрации. У нас вы найдете новые Зарубежные сериалы и Русские сериалы 2013, 2014, 2015 годов. Оставайтесь с нами, качайте любимые фильмы, игры, сериалы, книги и музыку.