img image001 image001 image001 image001 image001 image001 image001 image001 image001 image001 image001 image001 image001 image001 image001

Planets Sun Sun Sun
Статистика раздачи
Автор: Снежана | Размер: 26.78 ГБ | Добавлен: 25 июл 2013
Раздают: 1    Качают: 4
Скачать торрент
Скачать торрент
Описание торрента

СообщениеДобавлено: 25 июл 2013 

#77

Название: История Шотландии
Оригинальное название: A History of Scotland
Год выпуска: 2008
Жанр: Документальный, научно-познавательный, природа, путешествие, история
Режиссер: Тим Нейл, Андрю Даунс
В ролях: Неил Оливер

О фильме: «История Шотландии» - это, в первую очередь, попытка докопаться до настоящей истории, рассказать о тех фактах, которые не были придуманы монахами, летописцами и придворными историками в угоду времени и взглядам современников. Объективность и доказательства – вот два столпа, на которых зиждется этот документальный фильм. Сериал «История Шотландии», в противовес популярным сегодня жанрам «актер читает текст» или «журналист ведет расследование», дал слово профессионалу. Ведущим выступает Нейл Оливер, шотландец по национальности, имеющий за плечами 20-летний опыт работы археологом.

1. Последние из свободных людей / The Last of the Free (84 - 943 гг. н.э.)
2. Молоты шотландцев / Hammers of the Scots
3. Королей возвышают епископы / Bishop Makes King
4. Язык - это власть / Language Is Power
5. Проект "Британия" / Project Britain
Текст читает Александр Дасевич
Сохранены оригинальные чаптеры как на Blu-ray.
За работу над переводом субтитров большое спасибо Rosezz.
Спасибо за постер Rosezz
Озвучивание осуществлены в рамках сервиса "Озвучивание". Спонсоры: tambov68, gelom, LibrarianA, Turko, DeTorquemada, Воваростов, levanevski, HPotter, ZeRoNe, lawyers, PR, kalina08, Кириллка.
Отдельная благодарность muha
D:HDCLUBA.History.of.Scotland.2010.720p.BluRay.Rus.Eng.HDCLUBA.History.of.Scotland.Ep01.2010.720p.BluRay.Rus.Eng.HDCLUB.mkv
General
Unique ID : 208332060480490164675417955672251219921 (0x9CBB4B9D133E4373BEE1B0D55590BFD1)
Complete name : D:HDCLUBA.History.of.Scotland.2010.720p.BluRay.Rus.Eng.HDCLUBA.History.of.Scotland.Ep01.2010.720p.BluRay.Rus.Eng.HDCLUB.mkv
Format : Matroska
File size : 4.70 GiB
Duration : 57mn 50s
Overall bit rate : 11.6 Mbps
Movie name : A History of Scotland: 01 The Last of the Free (2010) - Release for HDCLUB
Encoded date : UTC 2012-09-30 22:06:36
Writing application : mkvmerge v3.4.0 ('Rapunzel') built on May 15 2010 09:38:20
Writing library : libebml v0.8.0 + libmatroska v0.9.0
Video #1
ID : 1
Format : AVC
Format/Info : Advanced Video Codec
Format profile : High@L4.1
Format settings, CABAC : Yes
Format settings, ReFrames : 9 frames
Format settings, GOP : M=1, N=25
Codec ID : V_MPEG4/ISO/AVC
Duration : 57mn 50s
Bit rate : 10.9 Mbps
Width : 1 280 pixels
Height : 720 pixels
Display aspect ratio : 16:9
Frame rate : 25.000 fps
Color space : YUV
Chroma subsampling : 4:2:0
Bit depth : 8 bits
Scan type : Progressive
Bits/(Pixel*Frame) : 0.473
Stream size : 4.40 GiB (94%)
Title : Release for HDCLUB
Writing library : x264 core 116 r2019 9cc407d
Encoding settings : cabac=1 / ref=9 / deblock=1:-3:-3 / analyse=0x3:0x133 / me=umh / subme=10 / psy=1 / psy_rd=1.20:0.20 / mixed_ref=1 / me_range=32 / chroma_me=1 / trellis=2 / 8x8dct=1 / cqm=0 / deadzone=21,11 / fast_pskip=0 / chroma_qp_offset=-3 / threads=12 / sliced_threads=0 / nr=0 / decimate=0 / interlaced=0 / bluray_compat=0 / constrained_intra=0 / bframes=7 / b_pyramid=2 / b_adapt=2 / b_bias=0 / direct=3 / weightb=1 / open_gop=0 / weightp=2 / keyint=250 / keyint_min=25 / scenecut=40 / intra_refresh=0 / rc_lookahead=60 / rc=crf / mbtree=1 / crf=19.0 / qcomp=0.75 / qpmin=0 / qpmax=69 / qpstep=4 / vbv_maxrate=50000 / vbv_bufsize=62500 / crf_max=0.0 / nal_hrd=none / ip_ratio=1.40 / aq=1:0.80
Language : English
Audio #2
ID : 2
Format : AC-3
Format/Info : Audio Coding 3
Mode extension : CM (complete main)
Codec ID : A_AC3
Duration : 57mn 50s
Bit rate mode : Constant
Bit rate : 256 Kbps
Channel(s) : 2 channels
Channel positions : Front: L R
Sampling rate : 48.0 KHz
Bit depth : 16 bits
Compression mode : Lossy
Stream size : 106 MiB (2%)
Title : AC3 2.0 @ 224 kbos - VO, A.Dasevich
Language : Russian
Audio #3
ID : 3
Format : AC-3
Format/Info : Audio Coding 3
Mode extension : CM (complete main)
Codec ID : A_AC3
Duration : 57mn 50s
Bit rate mode : Constant
Bit rate : 256 Kbps
Channel(s) : 2 channels
Channel positions : Front: L R
Sampling rate : 48.0 KHz
Bit depth : 16 bits
Compression mode : Lossy
Stream size : 106 MiB (2%)
Title : AC3 2.0 @ 256 kbps
Language : English
Text #4
ID : 4
Format : UTF-8
Codec ID : S_TEXT/UTF8
Codec ID/Info : UTF-8 Plain Text
Language : Russian
Text #5
ID : 5
Format : UTF-8
Codec ID : S_TEXT/UTF8
Codec ID/Info : UTF-8 Plain Text
Language : English

D:HDCLUBA.History.of.Scotland.2010.720p.BluRay.Rus.Eng.HDCLUBA.History.of.Scotland.Ep02.2010.720p.BluRay.Rus.Eng.HDCLUB.mkv
General
Unique ID : 178189052874813043181522790341689179649 (0x860DF698D21FB0A6AEAE71FCDBF77E01)
Complete name : D:HDCLUBA.History.of.Scotland.2010.720p.BluRay.Rus.Eng.HDCLUBA.History.of.Scotland.Ep02.2010.720p.BluRay.Rus.Eng.HDCLUB.mkv
Format : Matroska
File size : 5.37 GiB
Duration : 56mn 38s
Overall bit rate : 13.6 Mbps
Movie name : A History of Scotland: 02 Hammers of the Scots (2010) - Release for HDCLUB
Encoded date : UTC 2013-01-07 10:59:36
Writing application : mkvmerge v3.4.0 ('Rapunzel') built on May 15 2010 09:38:20
Writing library : libebml v0.8.0 + libmatroska v0.9.0
Video #1
ID : 1
Format : AVC
Format/Info : Advanced Video Codec
Format profile : High@L4.1
Format settings, CABAC : Yes
Format settings, ReFrames : 9 frames
Format settings, GOP : M=5, N=25
Codec ID : V_MPEG4/ISO/AVC
Duration : 56mn 38s
Bit rate : 12.8 Mbps
Width : 1 280 pixels
Height : 720 pixels
Display aspect ratio : 16:9
Frame rate : 25.000 fps
Color space : YUV
Chroma subsampling : 4:2:0
Bit depth : 8 bits
Scan type : Progressive
Bits/(Pixel*Frame) : 0.555
Stream size : 5.06 GiB (94%)
Title : Release for HDCLUB
Writing library : x264 core 116 r2019 9cc407d
Encoding settings : cabac=1 / ref=9 / deblock=1:-3:-3 / analyse=0x3:0x133 / me=umh / subme=10 / psy=1 / psy_rd=1.20:0.20 / mixed_ref=1 / me_range=32 / chroma_me=1 / trellis=2 / 8x8dct=1 / cqm=0 / deadzone=21,11 / fast_pskip=0 / chroma_qp_offset=-3 / threads=12 / sliced_threads=0 / nr=0 / decimate=0 / interlaced=0 / bluray_compat=0 / constrained_intra=0 / bframes=7 / b_pyramid=2 / b_adapt=2 / b_bias=0 / direct=3 / weightb=1 / open_gop=0 / weightp=2 / keyint=250 / keyint_min=25 / scenecut=40 / intra_refresh=0 / rc_lookahead=60 / rc=crf / mbtree=1 / crf=19.0 / qcomp=0.75 / qpmin=0 / qpmax=69 / qpstep=4 / vbv_maxrate=50000 / vbv_bufsize=62500 / crf_max=0.0 / nal_hrd=none / ip_ratio=1.40 / aq=1:0.80
Language : English
Audio #2
ID : 2
Format : AC-3
Format/Info : Audio Coding 3
Mode extension : CM (complete main)
Codec ID : A_AC3
Duration : 56mn 38s
Bit rate mode : Constant
Bit rate : 256 Kbps
Channel(s) : 2 channels
Channel positions : Front: L R
Sampling rate : 48.0 KHz
Bit depth : 16 bits
Compression mode : Lossy
Stream size : 104 MiB (2%)
Title : AC3 2.0 @ 256 kbos - VO, A.Dasevich
Language : Russian
Audio #3
ID : 3
Format : AC-3
Format/Info : Audio Coding 3
Mode extension : CM (complete main)
Codec ID : A_AC3
Duration : 56mn 38s
Bit rate mode : Constant
Bit rate : 256 Kbps
Channel(s) : 2 channels
Channel positions : Front: L R
Sampling rate : 48.0 KHz
Bit depth : 16 bits
Compression mode : Lossy
Stream size : 104 MiB (2%)
Title : AC3 2.0 @ 256 kbos
Language : English
Text #4
ID : 4
Format : UTF-8
Codec ID : S_TEXT/UTF8
Codec ID/Info : UTF-8 Plain Text
Language : Russian
Text #5
ID : 5
Format : UTF-8
Codec ID : S_TEXT/UTF8
Codec ID/Info : UTF-8 Plain Text
Language : English


Выпущено: Великобритания, Open University, The, BBC Scotland
Продолжительность: 05 x ~ 00:57:00
Перевод: Авторский - Александр Дасевич
Субтитры: Русские, английские



Качество: BDRip 720p
Формат: MKV
Видео: MPEG-4 AVC, ~ 10.9 Мбит/с, 1280x720
Аудио: AC3, 2 ch, 256 Кбит/с - Русский, Английский



Релиз от:



   Похожие торренты   Торрент   Размер 
В этой теме нет новых непрочитанных сообщений. BBC: История Шотландии / A History of Scotland [S01] (2008) BDRip | A

7 | 5

4.05 ГБ

В этой теме нет новых непрочитанных сообщений. Последний Король Шотландии / The Last King of Scotland (2006) BDRip 720p.

21 | 5

3.54 ГБ

В этой теме нет новых непрочитанных сообщений. Последний король Шотландии / The Last King of Scotland (2006) BDRip 720p от FLINTFILMS

7 | 2

2.08 ГБ

В этой теме нет новых непрочитанных сообщений. Последний король Шотландии / The Last King of Scotland (2006) BDRip от RP4 CHG

0 | 2

891.46 МБ

В этой теме нет новых непрочитанных сообщений. Последний король Шотландии / The Last King of Scotland (2006) BDRip от HQ-ViDEO

7 | 3

2.18 ГБ

В этой теме нет новых непрочитанных сообщений. Последний король Шотландии / The Last King of Scotland (2006) BDRip от HQ-ViDEO

28 | 8

2.57 ГБ

В этой теме нет новых непрочитанных сообщений. Последний король Шотландии / The Last King of Scotland (2006) BDRip | КПК от Generalfilm

1 | 6

423.88 МБ




Вы не можете начинать темы
Вы не можете отвечать на сообщения
Вы не можете редактировать свои сообщения
Вы не можете удалять свои сообщения
Вы не можете добавлять вложения

Перейти:  
Для Мосгорсуда, Роскомнадзора и рекламодателей: mosgorsud-torrent[собачка]yandex.ru
 Вход
ppkBB3cker v.2 © 2008-2014 @ PPK
[ Time : 0.034s | 15 Queries | GZIP : Off ]

Торрент трекер RUTOR.IN, Не можете зайти на rutor.org? Какой новый адрес рутор? Какое зеркало рутор? Не работает rutor.org и зеркала? Тогда наш торрент специально для вас. Rutor.in неофициальное зеркало rutor. В случае если у Вас заблокирован rutor или вдруг Вы не можете на него зайти, то Вы без труда сможете скачать бесплатно и без рекламы последние новинки кино, игр, сериалов и прочего у нас, на Rutor.in. Не нужно использовать прокси, чтобы зайти на рутор, достаточно воспользоваться нашим ресурсом. Все новые фильмы, игры, сериалы, книги и музыка за 2013 и 2014 годы через торрент бесплатно. Скачивайте фильмы в хорошем качестве, игры для пк, xbox, playstation без регистрации. У нас вы найдете новые Зарубежные сериалы и Русские сериалы 2013, 2014, 2015 годов. Оставайтесь с нами, качайте любимые фильмы, игры, сериалы, книги и музыку.
cron