img image001 image001 image001 image001 image001 image001 image001 image001 image001 image001 image001 image001 image001 image001 image001

Planets Sun Sun Sun
Статистика раздачи
Автор: Снежана | Размер: 7.96 ГБ | Добавлен: 25 июл 2013
Раздают: 55    Качают: 9
Скачать торрент
Скачать торрент
Описание торрента

СообщениеДобавлено: 25 июл 2013 

#77

Информация о фильме
Название: Дом. свидание с планетой / Дом. История путешествия
Оригинальное название: Home
Год выхода: 2009
Жанр: Документальный, драма
Режиссер: Ян Артус Бертранд
В ролях: Ян Артус Бертранд, Гленн Клоуз, Жак Гамблен

О фильме:
Фильм демонстрирует нам красоту планеты и последствия разрушений, нанесенных деятельностью человека. Незаживающие шрамы, нанесенные Земле промышленными производствами, последствия войн, экологических катастроф, раскрывают зрителю реальную ситуацию на планете.

Фильм был создан специально как призыв к объединению для спасения будущего нашей планеты. Именно поэтому он распространяется бесплатно. Владельцы прав на фильм и его распространение (компании PPR Group и EuropaCorp) также согласились не использовать его в коммерческих целях.
Весь фильм снимался с вертолёта на камеру высокого разрешения Cineflex.
За 18 месяцев съемочная группа побывала в 53 странах мира. При этом в некоторых странах, например в Китае и Саудовской Аравии, режиссёру было отказано в проведении воздушной съёмки. В Индии половина отснятых материалов была конфискована, а в Аргентине Артюс-Бертрану и его помощникам пришлось провести неделю в тюрьме.
Рождению фильма HOME предшествовали 15 лет работы, в течение которых было создано 500 тысяч фотографий, запечатленных в более чем 100 странах мира, продано 3 миллиона книг, проведено 100 бесплатных open-air-выставок с более чем 100 миллионами посетителей, снято 4 документальных фильма со зрительской аудиторией 5 миллионов человек.
Премьера фильма состоялась 5 июня 2009 года, во Всемирный день окружающей среды. Картина одновременно транслировалась на крупнейших площадках 87 стран мира в формате открытого бесплатного показа.



Страна: Франция
Студия: Elzevir Films, Europa Corp., France 2 (FR 2)
Продолжительность: 01:52:58
Перевод: Дублированный

Файл
Кодек: x264
Качество: BDRip 1080p (источник: Blu-ray Disc / 1080p)
Видео: 1920х1080 (16:9), 9438 Kbps, 23.976 fps, 0.190 bit/pixel
Аудио: 48.0 kHz, AC3 Dolby Digital, 3/2 (L,C,R,l,r) + LFE ch, 640 kbps
Субтитры: Русские

Семпл




x264 [info]: frame I:922 Avg QP:21.56 size:302162
x264 [info]: frame P:50993 Avg QP:25.15 size: 98608
x264 [info]: frame B:110596 Avg QP:27.93 size: 24322
General
Unique ID : 249376184021490599719358141501323176094 (0xBB9C1B2448B9258A94844DCE81ED689E)
Complete name : E:Home.2009.x264.BDRip.1080p.mkv
Format : Matroska
Format version : Version 4 / Version 2
File size : 7.96 GiB
Duration : 1h 53mn
Overall bit rate : 10.1 Mbps
Encoded date : UTC 2013-03-16 16:05:45
Writing application : mkvmerge v6.1.0 ('Old Devil') built on Mar 2 2013 14:32:37
Writing library : libebml v1.3.0 + libmatroska v1.4.0

Video
ID : 1
Format : AVC
Format/Info : Advanced Video Codec
Format profile : High@L4.1
Format settings, CABAC : Yes
Format settings, ReFrames : 4 frames
Codec ID : V_MPEG4/ISO/AVC
Duration : 1h 53mn
Bit rate : 9 438 Kbps
Width : 1 920 pixels
Height : 1 080 pixels
Display aspect ratio : 16:9
Frame rate mode : Constant
Frame rate : 23.976 fps
Color space : YUV
Chroma subsampling : 4:2:0
Bit depth : 8 bits
Scan type : Progressive
Bits/(Pixel*Frame) : 0.190
Stream size : 7.29 GiB (92%)
Writing library : x264 core 130 r2273 b3065e6
Encoding settings : cabac=1 / ref=4 / deblock=1:-1:-1 / analyse=0x3:0x133 / me=tesa / subme=11 / psy=1 / psy_rd=1.00:0.10 / mixed_ref=1 / me_range=32 / chroma_me=1 / trellis=2 / 8x8dct=1 / cqm=0 / deadzone=21,11 / fast_pskip=0 / chroma_qp_offset=-3 / threads=12 / lookahead_threads=1 / sliced_threads=0 / nr=0 / decimate=0 / interlaced=0 / bluray_compat=0 / constrained_intra=0 / bframes=3 / b_pyramid=2 / b_adapt=2 / b_bias=0 / direct=3 / weightb=1 / open_gop=0 / weightp=2 / keyint=240 / keyint_min=23 / scenecut=40 / intra_refresh=0 / rc_lookahead=60 / rc=2pass / mbtree=1 / bitrate=9438 / ratetol=1.0 / qcomp=0.60 / qpmin=0 / qpmax=69 / qpstep=4 / cplxblur=20.0 / qblur=0.5 / ip_ratio=1.40 / aq=1:1.00
Language : English
Default : Yes
Forced : No

Audio
ID : 2
Format : AC-3
Format/Info : Audio Coding 3
Mode extension : CM (complete main)
Format settings, Endianness : Big
Codec ID : A_AC3
Duration : 1h 53mn
Bit rate mode : Constant
Bit rate : 640 Kbps
Channel(s) : 6 channels
Channel positions : Front: L C R, Side: L R, LFE
Sampling rate : 48.0 KHz
Bit depth : 16 bits
Compression mode : Lossy
Stream size : 518 MiB (6%)
Title : AC3 5.1ch 640 kbps - Дубляж
Language : Russian
Default : Yes
Forced : No

Text
ID : 3
Format : UTF-8
Codec ID : S_TEXT/UTF8
Codec ID/Info : UTF-8 Plain Text
Title : Русские
Language : Russian
Default : No
Forced : No

Menu
00:00:00.000 : en:
00:04:02.325 : en:
00:10:31.714 : en:
00:15:32.306 : en:
00:19:26.790 : en:
00:25:45.460 : en:
00:29:52.332 : en:
00:36:47.830 : en:
00:40:34.223 : en:
00:45:23.929 : en:
00:49:24.086 : en:
00:55:00.880 : en:
00:56:35.225 : en:
01:01:05.119 : en:
01:06:26.816 : en:
01:11:24.488 : en:
01:16:02.432 : en:
01:21:29.175 : en:
01:26:22.844 : en:
01:33:34.734 : en:
01:37:50.406 : en:
01:42:46.326 : en:
01:46:24.878 : en:
01:51:25.887 : en:
01:52:57.979 : en:



   Похожие торренты   Торрент   Размер 
В этой теме нет новых непрочитанных сообщений. Дом: История путешествия. Свидание с планетой / Home (2009) BDRip 1080p | Режиссерская версия

92 | 8

10.31 ГБ

В этой теме нет новых непрочитанных сообщений. Дом: История путешествия. Свидание с планетой / Home (2009) Blu-Ray 1080p | Режиссёрская версия

16 | 10

23.03 ГБ

В этой теме нет новых непрочитанных сообщений. Дом: История путешествия. Свидание с планетой / Home (2009) Blu-Ray Remux 1080p | Режиссёрская версия

1 | 2

21.84 ГБ

В этой теме нет новых непрочитанных сообщений. Дом: История путешествия. Свидание с планетой / Home [s01] (2009) BDRip от Rulya74 | Режиссёрская версия

368 | 54

2.11 ГБ

В этой теме нет новых непрочитанных сообщений. Дом, свидание с планетой / Дом. История путешествия / Home (2009) BDRip 1080p от FREEISLAND | Полная версия

235 | 10

4.37 ГБ

В этой теме нет новых непрочитанных сообщений. Дом: История путешествия. Свидание с планетой (Режиссерская версия) / Нome (2009) BDRip-AVC от NovaLan

11 | 2

2.17 ГБ

В этой теме нет новых непрочитанных сообщений. Дом: История путешествия. Свидание с планетой (Режиссерская версия) / Нome (2009) DVDRip от NovaLan

14 | 3

2.06 ГБ




Вы не можете начинать темы
Вы не можете отвечать на сообщения
Вы не можете редактировать свои сообщения
Вы не можете удалять свои сообщения
Вы не можете добавлять вложения

Перейти:  
Для Мосгорсуда, Роскомнадзора и рекламодателей: mosgorsud-torrent[собачка]yandex.ru
 Вход
ppkBB3cker v.2 © 2008-2014 @ PPK
[ Time : 0.058s | 14 Queries | GZIP : Off ]

Торрент трекер RUTOR.IN, Не можете зайти на rutor.org? Какой новый адрес рутор? Какое зеркало рутор? Не работает rutor.org и зеркала? Тогда наш торрент специально для вас. Rutor.in неофициальное зеркало rutor. В случае если у Вас заблокирован rutor или вдруг Вы не можете на него зайти, то Вы без труда сможете скачать бесплатно и без рекламы последние новинки кино, игр, сериалов и прочего у нас, на Rutor.in. Не нужно использовать прокси, чтобы зайти на рутор, достаточно воспользоваться нашим ресурсом. Все новые фильмы, игры, сериалы, книги и музыка за 2013 и 2014 годы через торрент бесплатно. Скачивайте фильмы в хорошем качестве, игры для пк, xbox, playstation без регистрации. У нас вы найдете новые Зарубежные сериалы и Русские сериалы 2013, 2014, 2015 годов. Оставайтесь с нами, качайте любимые фильмы, игры, сериалы, книги и музыку.