img image001 image001 image001 image001 image001 image001 image001 image001 image001 image001 image001 image001 image001 image001 image001

Planets Sun Sun Sun
Статистика раздачи
Автор: Снежана | Размер: 650.6 МБ | Добавлен: 25 июл 2013
Раздают: 2    Качают: 2
Скачать торрент
Скачать торрент
Описание торрента

СообщениеДобавлено: 25 июл 2013 

#77

Год выпуска: 1998
Страна: США
Жанр: Документальный
Продолжительность: 00:39:31
Перевод: Любительcкий (одноголосый закадровый)
Русские субтитры: нет

Режиссер: Майкл Колфилд / Michael Caulfield

Описание: Ни один нормальный человек не захочет оказаться меж двух слонов, которые сцепились в схватке. Но примерно такое же ощущение испытываешь, когда смотришь один из эпизодов фильма Африка: Королевство Слонов. Как все начиналось? А начиналось с того, что однажды съемочная группа приехала в Кению, в Национальный Парк Амбосели…
Эта картина снималась полгода, а в результате получился короткий 40-минутный рассказ о жизни слоновьего стада - как они шли наперекор изнуряющей жажде - а потом сквозь лавины дождя - а потом вновь на долинах воцарилось блаженство жизни. Зримые и слышимые образы того, как проходит жизнь слонов - все это с топотом врывается на большой экран. Мы видим как маленький слоненок делает свои первые шаги под бдительным оком (и хоботом) своей мамы, как старые слонихи бросаются в бой, защищая стадо, а молодые слоны бьются на турнирах, чтобы завоевать благосклонность дамы… Мы видим, как ослабевают слоны во время длительных засух, как радуются они долгожданным дождям; как сокрушают деревья самцы в поисках пищи.
Чтобы показать зрителю бесконечные ландшафты Африки, камеру поднимали в воздух на вертолете и на воздушных шарах. Приходилось путешествовать и на надувных плотах, помещая камеру в специальный контейнер из плексигласа - чтобы можно было снимать слонов, входящих в воду.

Качество: HDRip
Формат:AVI
Видео кодек: XviD
Аудио кодек: MP3
Видео: 16:9, 2100 Кбит/сек, 720x400, 23,976 кадра/сек
Аудио: MP3, 2 канала, 192 Кбит/сек, 48,0 КГц


За русскую звуковую дорожку большое спасибо Naturali100

Общее
Полное имя : D:Africa's Elephant Kingdom.avi
Формат : AVI
Формат/Информация : Audio Video Interleave
Размер файла : 651 Мбайт
Продолжительность : 39 м.
Общий поток : 2301 Кбит/сек
Программа кодирования : VirtualDubMod 1.5.10.3 | www.virtualdub-fr.org || (build 2550/release)
Библиотека кодирования : VirtualDubMod build 2550/release

Видео
Идентификатор : 0
Формат : MPEG-4 Visual
Профиль формата : Advanced Simple@L5
Параметр BVOP формата : 2
Параметр QPel формата : Нет
Параметр GMC формата : Без точки перехода
Параметр матрицы формата : Default (H.263)
Режим смешивания : Сжатый битовый поток
Идентификатор кодека : XVID
Идентификатор кодека/Подсказка : XviD
Продолжительность : 39 м.
Битрейт : 2100 Кбит/сек
Ширина : 720 пикселей
Высота : 400 пикселей
Соотношение сторон : 16:9
Частота кадров : 23,976 кадра/сек
Цветовое пространство : YUV
Субдискретизация насыщенности : 4:2:0
Битовая глубина : 8 бит
Тип развёртки : Прогрессивная
Метод сжатия : С потерями
Бит/(Пиксели*Кадры) : 0.304
Размер потока : 594 Мбайт (91%)
Библиотека кодирования : XviD 1.2.1 (UTC 2008-12-04)

Аудио
Идентификатор : 1
Формат : MPEG Audio
Версия формата : Version 1
Профиль формата : Layer 3
Идентификатор кодека : 55
Идентификатор кодека/Подсказка : MP3
Продолжительность : 39 м.
Вид битрейта : Постоянный
Битрейт : 192 Кбит/сек
Каналы : 2 канала
Частота : 48,0 КГц
Метод сжатия : С потерями
Размер потока : 54,3 Мбайт (8%)
Выравнивание : Соединение по промежуткам
Продолжительность промежутка : 42 мс. (1,00 видеокадр)
Время предзагрузки промежутка : 504 мс.
Библиотека кодирования : LAME3.99r
Настройки программы : -m s -V 4 -q 2 -lowpass 18.6 -b 192

Релиз от: R.G.RealMT



   Похожие торренты   Торрент   Размер 
В этой теме нет новых непрочитанных сообщений. Discovery: Королевство африканского слона / Discovery: Africa's Elephant Kingdom (1998) BDRip от ExKinoRay

4 | 6

699.84 МБ

В этой теме нет новых непрочитанных сообщений. Тайны дикой природы Индии: В царстве слонов / Королевство слонов / Secrets of Wild India: Elephant Kingdom (2012) HDTVRip-AVC от Leo.pard

6 | 2

699.51 МБ

В этой теме нет новых непрочитанных сообщений. Тайны дикой природы Индии: В царстве слонов / Королевство слонов / Secrets of Wild India: Elephant Kingdom (2012) HDTVRip от Leo.pard | D

12 | 4

700.71 МБ

В этой теме нет новых непрочитанных сообщений. Discovery Atlas: Южная Африка / Discovery Atlas: South Africa Revealed (2006) DVDRip от SilverCinema

2 | 2

1.34 ГБ

В этой теме нет новых непрочитанных сообщений. Discovery: Выжить любой ценой: Северная Африка / North Africa (2010) SATRip-AVC

32 | 6

394.92 МБ

В этой теме нет новых непрочитанных сообщений. Discovery: Туристические жемчужины / Discovery: HD Getaways [01-8 из 8] (2004) HDRip от R.G.RealMT | Р1

3 | 2

3.16 ГБ

В этой теме нет новых непрочитанных сообщений. Discovery: Вторая мировая в HD цвете / Discovery: World War II In HD Colour [01-13 из 13] (2009) HDRip от R.G.RealMT | P1

86 | 13

10.72 ГБ




Вы не можете начинать темы
Вы не можете отвечать на сообщения
Вы не можете редактировать свои сообщения
Вы не можете удалять свои сообщения
Вы не можете добавлять вложения

Перейти:  
Для Мосгорсуда, Роскомнадзора и рекламодателей: mosgorsud-torrent[собачка]yandex.ru
 Вход
ppkBB3cker v.2 © 2008-2014 @ PPK
[ Time : 0.042s | 14 Queries | GZIP : Off ]

Торрент трекер RUTOR.IN, Не можете зайти на rutor.org? Какой новый адрес рутор? Какое зеркало рутор? Не работает rutor.org и зеркала? Тогда наш торрент специально для вас. Rutor.in неофициальное зеркало rutor. В случае если у Вас заблокирован rutor или вдруг Вы не можете на него зайти, то Вы без труда сможете скачать бесплатно и без рекламы последние новинки кино, игр, сериалов и прочего у нас, на Rutor.in. Не нужно использовать прокси, чтобы зайти на рутор, достаточно воспользоваться нашим ресурсом. Все новые фильмы, игры, сериалы, книги и музыка за 2013 и 2014 годы через торрент бесплатно. Скачивайте фильмы в хорошем качестве, игры для пк, xbox, playstation без регистрации. У нас вы найдете новые Зарубежные сериалы и Русские сериалы 2013, 2014, 2015 годов. Оставайтесь с нами, качайте любимые фильмы, игры, сериалы, книги и музыку.