img image001 image001 image001 image001 image001 image001 image001 image001 image001 image001 image001 image001 image001 image001 image001

Planets Sun Sun Sun
Статистика раздачи
Автор: Снежана | Размер: 872.45 МБ | Добавлен: 24 июл 2013
Раздают: 5    Качают: 2
Скачать торрент
Скачать торрент
Описание торрента

СообщениеДобавлено: 24 июл 2013 

#77

Год выпуска: 2011
Страна: США
Жанр: документальный
Продолжительность: 00:52:59
Перевод: Профессиональный (одноголосый) /студия "Омикрон"/
Оригинальная дорожка: английская

Режиссер: John Murray, Colin Stafford-Johnson

В ролях: Salim Ali, Colin Stafford-Johnson

Описание: Бенгальский тигр по кличке Сломанный Хвост родился в Ranthambhore - национальном парке на севере Индии. Это огромный природный заповедник для диких животных, обитающих в Индии. Но мировую славу этому заповеднику принесла популяция бенгальских тигров. Бенгальский тигр - традиционно почитаемое животное в Индийской культуре. Когда-то тигры были под защитой махараджей, а позже под защитой заповедников и природоохранных проектов. Но ни тогда, ни сегодня это не останавливало браконьеров, что не оставляло бенгальским тиграм шансов на выживание. В какой-то момент их популяция составляла всего 26 особей, что грозило полному истреблению вида как такового. И сегодня судьба каждого тигра имеет важное значение для вида в целом. Не дать исчезнуть бенгальским тиграм - вот задача, которую поставили перед собой работники заповедника Ranthambhore. И даже в условиях кризиса предпринималось все для спасения вида. И борьба продолжается.
"Сломанный Хвост: Последнее путешествие тигра" - это история жизни и смерти тигра - величественного животного, популяция которого пока имеет все шансы возродиться.





Качество: HDRip
Формат:AVI
Видео кодек: XviD
Аудио кодек: MP3
Видео: 16:9, 2098 Кбит/сек, 720x400, 29,970 кадров/сек
Аудио: MP3, 2 канала, 192 Кбит/сек, 48,0 КГц






- Русская дорожка получена наложением чистого голоса.
- Перевод и озвучивание осуществлены в рамках сервиса "Озвучивание". Спонсоры: LibrarianA, Кириллка, levanevski, Loki1982, jezburg68, kimi, Cheetah, gelom, Snow_Leopard, sergey_n, Magal, TheGod, Cheetah, farmazon, Turko, Kacok_321, yuriker, Воваростов.
- Релиз подготовил LibrarianA.



Общее
Полное имя : D:Nature.Broken.Tail.A.Tiger.is.Last.Journey.2011.avi
Формат : AVI
Формат/Информация : Audio Video Interleave
Размер файла : 872 Мбайт
Продолжительность : 52 м.
Общий поток : 2302 Кбит/сек
Программа кодирования : VirtualDubMod 1.5.10.3 | www.virtualdub-fr.org || (build 2550/release)
Библиотека кодирования : VirtualDubMod build 2550/release

Видео
Идентификатор : 0
Формат : MPEG-4 Visual
Профиль формата : Advanced Simple@L5
Параметр BVOP формата : 2
Параметр QPel формата : Нет
Параметр GMC формата : Без точки перехода
Параметр матрицы формата : Default (H.263)
Режим смешивания : Сжатый битовый поток
Идентификатор кодека : XVID
Идентификатор кодека/Подсказка : XviD
Продолжительность : 52 м.
Битрейт : 2098 Кбит/сек
Ширина : 720 пикселей
Высота : 400 пикселей
Соотношение сторон : 16:9
Частота кадров : 29,970 кадров/сек
Цветовое пространство : YUV
Субдискретизация насыщенности : 4:2:0
Битовая глубина : 8 бит
Тип развёртки : Прогрессивная
Метод сжатия : С потерями
Бит/(Пиксели*Кадры) : 0.243
Размер потока : 795 Мбайт (91%)
Библиотека кодирования : XviD 1.2.1 (UTC 2008-12-04)

Аудио
Идентификатор : 1
Формат : MPEG Audio
Версия формата : Version 1
Профиль формата : Layer 3
Идентификатор кодека : 55
Идентификатор кодека/Подсказка : MP3
Продолжительность : 52 м.
Вид битрейта : Постоянный
Битрейт : 192 Кбит/сек
Каналы : 2 канала
Частота : 48,0 КГц
Метод сжатия : С потерями
Размер потока : 72,8 Мбайт (8%)
Выравнивание : Соединение по промежуткам
Продолжительность промежутка : 33 мс. (1,00 видеокадр)
Время предзагрузки промежутка : 504 мс.
Библиотека кодирования : LAME3.99r
Настройки программы : -m s -V 4 -q 2 -lowpass 18.6 -b 192

Релиз от: R.G.RealMT



   Похожие торренты   Торрент   Размер 
В этой теме нет новых непрочитанных сообщений. Тигриный хвост / A Tiger's Tail (2014) WEB-DLRip | P

1942 | 49

1.37 ГБ

В этой теме нет новых непрочитанных сообщений. Тигриный хвост / A Tiger's Tail (2014) WEB-DLRip от MegaPeer | P

17 | 0

745.18 МБ

В этой теме нет новых непрочитанных сообщений. Тигриный хвост / A Tiger's Tail (2014) WEB-DLRip 720p от MegaPeer | P

32 | 0

1.5 ГБ

В этой теме нет новых непрочитанных сообщений. Орбита: Необыкновенное путешествие планеты Земля / BBC: Orbit: Earth's Extraordinary Journey [01-03 из 03] (2012) HDRip от R.G.RealMT

28 | 5

2.36 ГБ

В этой теме нет новых непрочитанных сообщений. Путешествие по природе / Nature's Journey (2007) BDRip

0 | 2

1.46 ГБ

В этой теме нет новых непрочитанных сообщений. Путешествие по природе / Nature's Journey (2007) BDRip от HQ-ViDEO

10 | 1

1.46 ГБ

В этой теме нет новых непрочитанных сообщений. Путешествие по природе / Nature's Journey (2007) BDRip 720p

4 | 3

4.36 ГБ




Вы не можете начинать темы
Вы не можете отвечать на сообщения
Вы не можете редактировать свои сообщения
Вы не можете удалять свои сообщения
Вы не можете добавлять вложения

Перейти:  
Для Мосгорсуда, Роскомнадзора и рекламодателей: mosgorsud-torrent[собачка]yandex.ru
 Вход
ppkBB3cker v.2 © 2008-2014 @ PPK
[ Time : 0.044s | 15 Queries | GZIP : Off ]

Торрент трекер RUTOR.IN, Не можете зайти на rutor.org? Какой новый адрес рутор? Какое зеркало рутор? Не работает rutor.org и зеркала? Тогда наш торрент специально для вас. Rutor.in неофициальное зеркало rutor. В случае если у Вас заблокирован rutor или вдруг Вы не можете на него зайти, то Вы без труда сможете скачать бесплатно и без рекламы последние новинки кино, игр, сериалов и прочего у нас, на Rutor.in. Не нужно использовать прокси, чтобы зайти на рутор, достаточно воспользоваться нашим ресурсом. Все новые фильмы, игры, сериалы, книги и музыка за 2013 и 2014 годы через торрент бесплатно. Скачивайте фильмы в хорошем качестве, игры для пк, xbox, playstation без регистрации. У нас вы найдете новые Зарубежные сериалы и Русские сериалы 2013, 2014, 2015 годов. Оставайтесь с нами, качайте любимые фильмы, игры, сериалы, книги и музыку.
cron