img image001 image001 image001 image001 image001 image001 image001 image001 image001 image001 image001 image001 image001 image001 image001

Planets Sun Sun Sun
Статистика раздачи
Автор: Снежана | Размер: 6.86 ГБ | Добавлен: 25 июл 2013
Раздают: 6    Качают: 8
Скачать торрент
Скачать торрент
Описание торрента

СообщениеДобавлено: 25 июл 2013 

#77

Год выпуска: 2011
Страна: Великобритания
Жанр: документальный
Продолжительность: смотри спойлер
Перевод: Закадровый, Авторский одноголосный (Владимир Курдов)

Режиссер: Аластер Фовергилл / Alastair Fothergill

Описание: В этом путешествии мы отправимся на край земли. В места где экстремальные условия отрицают само существования жизни.
Однако жизнь здесь не просто существует, она процветает. Приспосабливаясь и изменяясь, приобретая удивительные формы, находя неожиданные способы существования, жизнь еще раз доказывает величие и грандиозность эволюции.



Год выпуска: 2011
Страна: Великобритания
Жанр: документальный
Продолжительность: 00:58:00
Перевод: Закадровый, Авторский одноголосный (Владимир Курдов)

Описание:
В этой серии Дэвид Аттенборо путешествует на край земли, увлекая зрителя в эту удивительную поездку через полярные области нашей планеты, Севера и Юга. Арктика и Антарктика являются самыми большими и наименее известными дикими местами. Это - волшебные ледяные миры, населенные самыми причудливыми и выносливыми существами на земле. Путешествие берёт своё начало с Северного полюса, поскольку солнце возвращается сюда только после шести месяцев темноты. Мы следуем за парой ухаживающих белых медведей, которые удивительно нежны друг с другом. Следующая наша остановка - гигантский ледниковый покров Гренландии, где водопады погружаются в сердце льда и колоссальные по размеру айсберги падают в море. Мы увидим, как киты горбачи присоединяются к самому большому сбору морских птиц на земле в богатых водах Аляски. Дальше мы путешествуем в Тайгу, которая содержит одну треть всех деревьев на земле. Здесь, стая из 25 самых больших в мире волков нападают на бизона. В другом конце нашей планеты - Антарктика, где пингвины изо всех сил пытаются избежать голодного морского льва, и стая дельфинов создают гигантские волны, чтобы очистить полыньи от ледяных плавучих льдин.

Качество: HDRip
Формат:AVI
Видео кодек: XviD
Аудио кодек: MP3
Видео: 16:9, 2100 Кбит/сек, 720x400, 25,000 кадров/сек
Аудио: MP3, 2 канала, 192 Кбит/сек, 48,0 КГц



Общее
Полное имя : D:Frozen.PlanetFrozen.Planet.Episode.1.To.the.Ends.of.the.Earth.avi
Формат : AVI
Формат/Информация : Audio Video Interleave
Размер файла : 964 Мбайт
Продолжительность : 58 м.
Общий поток : 2301 Кбит/сек
Программа кодирования : VirtualDubMod 1.5.10.3 | www.virtualdub-fr.org || (build 2550/release)
Библиотека кодирования : VirtualDubMod build 2550/release

Видео
Идентификатор : 0
Формат : MPEG-4 Visual
Профиль формата : Advanced Simple@L5
Параметр BVOP формата : 2
Параметр QPel формата : Нет
Параметр GMC формата : Без точки перехода
Параметр матрицы формата : Default (H.263)
Режим смешивания : Сжатый битовый поток
Идентификатор кодека : XVID
Идентификатор кодека/Подсказка : XviD
Продолжительность : 58 м.
Битрейт : 2100 Кбит/сек
Ширина : 720 пикселей
Высота : 400 пикселей
Соотношение сторон : 16:9
Частота кадров : 25,000 кадров/сек
Цветовое пространство : YUV
Субдискретизация насыщенности : 4:2:0
Битовая глубина : 8 бит
Тип развёртки : Прогрессивная
Метод сжатия : С потерями
Бит/(Пиксели*Кадры) : 0.292
Размер потока : 879 Мбайт (91%)
Библиотека кодирования : XviD 1.2.1 (UTC 2008-12-04)

Аудио
Идентификатор : 1
Формат : MPEG Audio
Версия формата : Version 1
Профиль формата : Layer 3
Идентификатор кодека : 55
Идентификатор кодека/Подсказка : MP3
Продолжительность : 58 м.
Вид битрейта : Постоянный
Битрейт : 192 Кбит/сек
Каналы : 2 канала
Частота : 48,0 КГц
Метод сжатия : С потерями
Размер потока : 80,4 Мбайт (8%)
Выравнивание : Соединение по промежуткам
Продолжительность промежутка : 40 мс. (1,00 видеокадр)
Время предзагрузки промежутка : 504 мс.
Библиотека кодирования : LAME3.99r
Настройки программы : -m s -V 4 -q 2 -lowpass 18.6 -b 192


Год выпуска: 2011
Страна: Великобритания
Жанр: документальный
Продолжительность: 00:57:00
Перевод: Закадровый, Авторский одноголосный (Владимир Курдов)

Описание:
Пришла Весна в полярне регионы и солнце появляется после своего отсутствия на протяжении пяти месяцев, тепло и жизнь вернуться в эти волшебные миры льда - самая большая сезонная преобразования на нашей планете продолжается. Самцы пингвинов Адели прибыть в Антарктиду строить свои гнезда - она занимает хорошее свойство привлекать лучших товарищей го мужчины не остановится ни лучше своих соперников! Но эти ранние птицы лицом самых яростных бурь на планете. В Арктике полярная медведица охотится с ее детенышами. Внутри страны, замерзшие реки начинают ломаться и миллиарды тонн льда прокатилась вниз по течению в наибольшей полярных очки. Это талая вода оплодотворяет Северный Ледовитый океан, кормление огромные косяки арктической трески и нарвала. Приток пресной воды ускоряет распад морского льда - площадь льдов размером с Австралию скоро исчезнуть из Арктики. На земле, пушистый медведь гусеница выходит из снега, проведя зиму замороженные твердые. Гусеницы моли обычно становиться спустя несколько месяцев после вылупления, но такая суровая жизнь здесь, что шерстистые медведь занимает 14 лет, чтобы достичь зрелого возраста. Как только зрелые она всего за несколько дней, чтобы найти себе пару, прежде чем он умрет! Наряду гусеницы белой расы арктического волка повысить свой обожаемый детенышей до холодного возвращается. В Антарктиде огромное количество морских птиц прибывают на Южной вступления Грузии в гигантских альбатросов и королевских пингвинов, которые были там всю зиму. Слонов борьбу яростные бои за самок на пляже, который содержит наибольшую массу животных на планете. Наконец, женский пингвинов Адели приехать, изгнаны из воды касаток. Спаривание и куриных воспитания лежат перед ними.

Качество: HDRip
Формат:AVI
Видео кодек: XviD
Аудио кодек: MP3
Видео: 16:9, 2100 Кбит/сек, 720x400, 25,000 кадров/сек
Аудио: MP3, 2 канала, 192 Кбит/сек, 48,0 КГц



Общее
Полное имя : D:Frozen.PlanetFrozen.Planet.Episode.2.Spring.BDRip.avi
Формат : AVI
Формат/Информация : Audio Video Interleave
Размер файла : 950 Мбайт
Продолжительность : 57 м.
Общий поток : 2301 Кбит/сек
Программа кодирования : VirtualDubMod 1.5.10.3 | www.virtualdub-fr.org || (build 2550/release)
Библиотека кодирования : VirtualDubMod build 2550/release

Видео
Идентификатор : 0
Формат : MPEG-4 Visual
Профиль формата : Advanced Simple@L5
Параметр BVOP формата : 2
Параметр QPel формата : Нет
Параметр GMC формата : Без точки перехода
Параметр матрицы формата : Default (H.263)
Режим смешивания : Сжатый битовый поток
Идентификатор кодека : XVID
Идентификатор кодека/Подсказка : XviD
Продолжительность : 57 м.
Битрейт : 2100 Кбит/сек
Ширина : 720 пикселей
Высота : 400 пикселей
Соотношение сторон : 16:9
Частота кадров : 25,000 кадров/сек
Цветовое пространство : YUV
Субдискретизация насыщенности : 4:2:0
Битовая глубина : 8 бит
Тип развёртки : Прогрессивная
Метод сжатия : С потерями
Бит/(Пиксели*Кадры) : 0.292
Размер потока : 866 Мбайт (91%)
Библиотека кодирования : XviD 1.2.1 (UTC 2008-12-04)

Аудио
Идентификатор : 1
Формат : MPEG Audio
Версия формата : Version 1
Профиль формата : Layer 3
Идентификатор кодека : 55
Идентификатор кодека/Подсказка : MP3
Продолжительность : 57 м.
Вид битрейта : Постоянный
Битрейт : 192 Кбит/сек
Каналы : 2 канала
Частота : 48,0 КГц
Метод сжатия : С потерями
Размер потока : 79,2 Мбайт (8%)
Выравнивание : Соединение по промежуткам
Продолжительность промежутка : 40 мс. (1,00 видеокадр)
Время предзагрузки промежутка : 504 мс.
Библиотека кодирования : LAME3.99r
Настройки программы : -m s -V 4 -q 2 -lowpass 18.6 -b 192


Год выпуска: 2011
Страна: Великобритания
Жанр: документальный
Продолжительность: 00:58:00
Перевод: Закадровый, Авторский одноголосный (Владимир Курдов)

Описание:
В полярных регионах наступило лето, и солнце никогда не заходит. Представьте себе один непрерывный день, длиной в несколько месяцев. Некоторые полярные животные столкнуться с рядом проблем, когда их окружающий ледяной мир исчезнет. Другие должны использовать это особенное время благоразумно, ибо летнее изобилие продлится недолго. Лето только начинается, и увеличивающаяся энергия солнца создает удивительные ландшафты. Обширные ледяные просторы, некогда стоявшие неподвижно, вернулись к жизни…

Качество: HDRip
Формат:AVI
Видео кодек: XviD
Аудио кодек: MP3
Видео: 16:9, 2100 Кбит/сек, 720x400, 25,000 кадров/сек
Аудио: MP3, 2 канала, 192 Кбит/сек, 48,0 КГц



Общее
Полное имя : D:Frozen.PlanetFrozen.Planet.Episode.3.Summer.avi
Формат : AVI
Формат/Информация : Audio Video Interleave
Размер файла : 964 Мбайт
Продолжительность : 58 м.
Общий поток : 2301 Кбит/сек
Программа кодирования : VirtualDubMod 1.5.10.3 | www.virtualdub-fr.org || (build 2550/release)
Библиотека кодирования : VirtualDubMod build 2550/release

Видео
Идентификатор : 0
Формат : MPEG-4 Visual
Профиль формата : Advanced Simple@L5
Параметр BVOP формата : 2
Параметр QPel формата : Нет
Параметр GMC формата : Без точки перехода
Параметр матрицы формата : Default (H.263)
Режим смешивания : Сжатый битовый поток
Идентификатор кодека : XVID
Идентификатор кодека/Подсказка : XviD
Продолжительность : 58 м.
Битрейт : 2100 Кбит/сек
Ширина : 720 пикселей
Высота : 400 пикселей
Соотношение сторон : 16:9
Частота кадров : 25,000 кадров/сек
Цветовое пространство : YUV
Субдискретизация насыщенности : 4:2:0
Битовая глубина : 8 бит
Тип развёртки : Прогрессивная
Метод сжатия : С потерями
Бит/(Пиксели*Кадры) : 0.292
Размер потока : 880 Мбайт (91%)
Библиотека кодирования : XviD 1.2.1 (UTC 2008-12-04)

Аудио
Идентификатор : 1
Формат : MPEG Audio
Версия формата : Version 1
Профиль формата : Layer 3
Идентификатор кодека : 55
Идентификатор кодека/Подсказка : MP3
Продолжительность : 58 м.
Вид битрейта : Постоянный
Битрейт : 192 Кбит/сек
Каналы : 2 канала
Частота : 48,0 КГц
Метод сжатия : С потерями
Размер потока : 80,4 Мбайт (8%)
Выравнивание : Соединение по промежуткам
Продолжительность промежутка : 40 мс. (1,00 видеокадр)
Время предзагрузки промежутка : 504 мс.
Библиотека кодирования : LAME3.99r
Настройки программы : -m s -V 4 -q 2 -lowpass 18.6 -b 192


Год выпуска: 2011
Страна: Великобритания
Жанр: документальный
Продолжительность: 00:57:00
Перевод: Закадровый, Авторский одноголосный (Владимир Курдов)

Описание:
Арктическое лето близится к концу. Солнце не садилось уже 3 месяца. Сложно представить, что скоро вновь наступят суровые холода. Кто-то из животных всё же будет встречать прохладную осень, но для большинства остается все меньше времени, прежде чем они будут вынуждены мигрировать на юг. Ранняя осень в канадской Арктике, белые медведи собираются в прибрежной полосе в ожидании замерзания моря. Лёд только-только начинает образовываться…

Качество: HDRip
Формат:AVI
Видео кодек: XviD
Аудио кодек: MP3
Видео: 16:9, 2100 Кбит/сек, 720x400, 25,000 кадров/сек
Аудио: MP3, 2 канала, 192 Кбит/сек, 48,0 КГц



Общее
Полное имя : D:Frozen.PlanetFrozen.Planet.Episode.4.Autumn.avi
Формат : AVI
Формат/Информация : Audio Video Interleave
Размер файла : 949 Мбайт
Продолжительность : 57 м.
Общий поток : 2301 Кбит/сек
Программа кодирования : VirtualDubMod 1.5.10.3 | www.virtualdub-fr.org || (build 2550/release)
Библиотека кодирования : VirtualDubMod build 2550/release

Видео
Идентификатор : 0
Формат : MPEG-4 Visual
Профиль формата : Advanced Simple@L5
Параметр BVOP формата : 2
Параметр QPel формата : Нет
Параметр GMC формата : Без точки перехода
Параметр матрицы формата : Default (H.263)
Режим смешивания : Сжатый битовый поток
Идентификатор кодека : XVID
Идентификатор кодека/Подсказка : XviD
Продолжительность : 57 м.
Битрейт : 2100 Кбит/сек
Ширина : 720 пикселей
Высота : 400 пикселей
Соотношение сторон : 16:9
Частота кадров : 25,000 кадров/сек
Цветовое пространство : YUV
Субдискретизация насыщенности : 4:2:0
Битовая глубина : 8 бит
Тип развёртки : Прогрессивная
Метод сжатия : С потерями
Бит/(Пиксели*Кадры) : 0.292
Размер потока : 865 Мбайт (91%)
Библиотека кодирования : XviD 1.2.1 (UTC 2008-12-04)

Аудио
Идентификатор : 1
Формат : MPEG Audio
Версия формата : Version 1
Профиль формата : Layer 3
Идентификатор кодека : 55
Идентификатор кодека/Подсказка : MP3
Продолжительность : 57 м.
Вид битрейта : Постоянный
Битрейт : 192 Кбит/сек
Каналы : 2 канала
Частота : 48,0 КГц
Метод сжатия : С потерями
Размер потока : 79,1 Мбайт (8%)
Выравнивание : Соединение по промежуткам
Продолжительность промежутка : 40 мс. (1,00 видеокадр)
Время предзагрузки промежутка : 504 мс.
Библиотека кодирования : LAME3.99r
Настройки программы : -m s -V 4 -q 2 -lowpass 18.6 -b 192


Год выпуска: 2011
Страна: Великобритания
Жанр: документальный
Продолжительность: 00:57:00
Перевод: Закадровый, Авторский одноголосный (Владимир Курдов)

Описание:
Полярная зима. Это самый враждебный облик планеты. Температура тут падает до отметки минус 70 градусов, а скорость ветра достигает немыслимые 200 км/ч. Это поистине самые жесткие климатические условия на Земле. Те из животных, которые остаются здесь в это время, должны им противостоять. Мы понаблюдаем за белой медведицей, которая направляется в арктические горы, чтобы родить первенца, а также белым медведем, который одиноко бродит по заснеженным просторам Арктики. Увидим сцену отчаянной и кровавой битвы между волком и бизоном и многое другое.

Качество: HDRip
Формат:AVI
Видео кодек: XviD
Аудио кодек: MP3
Видео: 16:9, 2100 Кбит/сек, 720x400, 25,000 кадров/сек
Аудио: MP3, 2 канала, 192 Кбит/сек, 48,0 КГц



Общее
Полное имя : D:Frozen.PlanetFrozen.Planet.Episode.5.Winter.avi
Формат : AVI
Формат/Информация : Audio Video Interleave
Размер файла : 946 Мбайт
Продолжительность : 57 м.
Общий поток : 2301 Кбит/сек
Программа кодирования : VirtualDubMod 1.5.10.3 | www.virtualdub-fr.org || (build 2550/release)
Библиотека кодирования : VirtualDubMod build 2550/release

Видео
Идентификатор : 0
Формат : MPEG-4 Visual
Профиль формата : Advanced Simple@L5
Параметр BVOP формата : 2
Параметр QPel формата : Нет
Параметр GMC формата : Без точки перехода
Параметр матрицы формата : Default (H.263)
Режим смешивания : Сжатый битовый поток
Идентификатор кодека : XVID
Идентификатор кодека/Подсказка : XviD
Продолжительность : 57 м.
Битрейт : 2100 Кбит/сек
Ширина : 720 пикселей
Высота : 400 пикселей
Соотношение сторон : 16:9
Частота кадров : 25,000 кадров/сек
Цветовое пространство : YUV
Субдискретизация насыщенности : 4:2:0
Битовая глубина : 8 бит
Тип развёртки : Прогрессивная
Метод сжатия : С потерями
Бит/(Пиксели*Кадры) : 0.292
Размер потока : 863 Мбайт (91%)
Библиотека кодирования : XviD 1.2.1 (UTC 2008-12-04)

Аудио
Идентификатор : 1
Формат : MPEG Audio
Версия формата : Version 1
Профиль формата : Layer 3
Идентификатор кодека : 55
Идентификатор кодека/Подсказка : MP3
Продолжительность : 57 м.
Вид битрейта : Постоянный
Битрейт : 192 Кбит/сек
Каналы : 2 канала
Частота : 48,0 КГц
Метод сжатия : С потерями
Размер потока : 78,9 Мбайт (8%)
Выравнивание : Соединение по промежуткам
Продолжительность промежутка : 40 мс. (1,00 видеокадр)
Время предзагрузки промежутка : 504 мс.
Библиотека кодирования : LAME3.99r
Настройки программы : -m s -V 4 -q 2 -lowpass 18.6 -b 192


Год выпуска: 2011
Страна: Великобритания
Жанр: документальный
Продолжительность: 00:57:00
Перевод: Закадровый, Авторский одноголосный (Владимир Курдов)

Описание:
На нашей Планете нет более враждебного места для жизни, чем ее полярные области. Такое существо, как человек, имеет низкий уровень природной защиты от холода. Так почему же, тысячелетиями мы выдерживали трудности, c которыми сталкивались, живя здесь? И что заставляет нас возвращаться сегодня в самые экстремальные регионы нашей планеты? Зима в самом северном поселении на Планете, Лонгйире. Здесь солнце не всходит на протяжении трех месяцев в году. Только полная луна, которая никогда не садится, роняет свой свет в этой темноте. Этот город был построен здесь, в Свальбарде, лишь в 700 милях от Северного Полюса, для разработки рудников.

Качество: HDRip
Формат:AVI
Видео кодек: XviD
Аудио кодек: MP3
Видео: 16:9, 2100 Кбит/сек, 720x400, 25,000 кадров/сек
Аудио: MP3, 2 канала, 192 Кбит/сек, 48,0 КГц



Общее
Полное имя : D:Frozen.PlanetFrozen.Planet.Episode.6.The.Last.Frontier.avi
Формат : AVI
Формат/Информация : Audio Video Interleave
Размер файла : 950 Мбайт
Продолжительность : 57 м.
Общий поток : 2302 Кбит/сек
Программа кодирования : VirtualDubMod 1.5.10.3 | www.virtualdub-fr.org || (build 2550/release)
Библиотека кодирования : VirtualDubMod build 2550/release

Видео
Идентификатор : 0
Формат : MPEG-4 Visual
Профиль формата : Advanced Simple@L5
Параметр BVOP формата : 2
Параметр QPel формата : Нет
Параметр GMC формата : Без точки перехода
Параметр матрицы формата : Default (H.263)
Режим смешивания : Сжатый битовый поток
Идентификатор кодека : XVID
Идентификатор кодека/Подсказка : XviD
Продолжительность : 57 м.
Битрейт : 2100 Кбит/сек
Ширина : 720 пикселей
Высота : 400 пикселей
Соотношение сторон : 16:9
Частота кадров : 25,000 кадров/сек
Цветовое пространство : YUV
Субдискретизация насыщенности : 4:2:0
Битовая глубина : 8 бит
Тип развёртки : Прогрессивная
Метод сжатия : С потерями
Бит/(Пиксели*Кадры) : 0.292
Размер потока : 867 Мбайт (91%)
Библиотека кодирования : XviD 1.2.1 (UTC 2008-12-04)

Аудио
Идентификатор : 1
Формат : MPEG Audio
Версия формата : Version 1
Профиль формата : Layer 3
Идентификатор кодека : 55
Идентификатор кодека/Подсказка : MP3
Продолжительность : 57 м.
Вид битрейта : Постоянный
Битрейт : 192 Кбит/сек
Каналы : 2 канала
Частота : 48,0 КГц
Метод сжатия : С потерями
Размер потока : 79,2 Мбайт (8%)
Выравнивание : Соединение по промежуткам
Продолжительность промежутка : 40 мс. (1,00 видеокадр)
Время предзагрузки промежутка : 504 мс.
Библиотека кодирования : LAME3.99r
Настройки программы : -m s -V 4 -q 2 -lowpass 18.6 -b 192


Год выпуска: 2011
Страна: Великобритания
Жанр: документальный
Продолжительность: 00:57:00
Перевод: Закадровый, Авторский одноголосный (Владимир Курдов)

Описание:
Эта белая пустыня, эта пустота - Северный Полюс. Я стою посреди замерзшего океана. Под моими ногами и на 500 миль в любом направлении находится несколько метров льда. Но очень вероятно, что скоро нечто значительное произойдет здесь, на Северном Полюсе. Есть вероятность, что в течении следующих нескольких десятилетий, возможно уже к 2020, здесь будет открытая вода, впервые за весь период человеческих наблюдений. Арктика и Антарктика изменяются. Огромные массы льда, остававшиеся замерзшими тысячи лет, раскалываются на части и тают. Ученые, изучающие лед, отправляются в самые экстремальные точки планеты, чтобы точно понять, что происходит. Для них это волнующие времена. Но изменения, происходящие здесь, будут ощущаться далеко за пределами полярных регионов. В этой серии мы попытаемся понять, что означают эти перемены не только для людей и животных, живущих около полюсов, но и для всей планеты в целом.

Качество: HDRip
Формат:AVI
Видео кодек: XviD
Аудио кодек: MP3
Видео: 16:9, 2100 Кбит/сек, 720x400, 25,000 кадров/сек
Аудио: MP3, 2 канала, 192 Кбит/сек, 48,0 КГц



Общее
Полное имя : D:Frozen.PlanetFrozen.Planet.Episode.7.On.Thin.Ice.avi
Формат : AVI
Формат/Информация : Audio Video Interleave
Размер файла : 952 Мбайт
Продолжительность : 57 м.
Общий поток : 2302 Кбит/сек
Программа кодирования : VirtualDubMod 1.5.10.3 | www.virtualdub-fr.org || (build 2550/release)
Библиотека кодирования : VirtualDubMod build 2550/release

Видео
Идентификатор : 0
Формат : MPEG-4 Visual
Профиль формата : Advanced Simple@L5
Параметр BVOP формата : 2
Параметр QPel формата : Нет
Параметр GMC формата : Без точки перехода
Параметр матрицы формата : Default (H.263)
Режим смешивания : Сжатый битовый поток
Идентификатор кодека : XVID
Идентификатор кодека/Подсказка : XviD
Продолжительность : 57 м.
Битрейт : 2100 Кбит/сек
Ширина : 720 пикселей
Высота : 400 пикселей
Соотношение сторон : 16:9
Частота кадров : 25,000 кадров/сек
Цветовое пространство : YUV
Субдискретизация насыщенности : 4:2:0
Битовая глубина : 8 бит
Тип развёртки : Прогрессивная
Метод сжатия : С потерями
Бит/(Пиксели*Кадры) : 0.292
Размер потока : 869 Мбайт (91%)
Библиотека кодирования : XviD 1.2.1 (UTC 2008-12-04)

Аудио
Идентификатор : 1
Формат : MPEG Audio
Версия формата : Version 1
Профиль формата : Layer 3
Идентификатор кодека : 55
Идентификатор кодека/Подсказка : MP3
Продолжительность : 57 м.
Вид битрейта : Постоянный
Битрейт : 192 Кбит/сек
Каналы : 2 канала
Частота : 48,0 КГц
Метод сжатия : С потерями
Размер потока : 79,4 Мбайт (8%)
Выравнивание : Соединение по промежуткам
Продолжительность промежутка : 40 мс. (1,00 видеокадр)
Время предзагрузки промежутка : 504 мс.
Библиотека кодирования : LAME3.99r
Настройки программы : -m s -V 4 -q 2 -lowpass 18.6 -b 192


Год выпуска: 2011
Страна: Великобритания
Жанр: документальный
Продолжительность: 00:21:00
Перевод: Закадровый, Авторский одноголосный (Владимир Курдов)

Описание:
Рассказ про научно-исследовательскую базу в Антарктиде.

Качество: HDRip
Формат:AVI
Видео кодек: XviD
Аудио кодек: MP3
Видео: 16:9, 2100 Кбит/сек, 720x400, 25,000 кадров/сек
Аудио: MP3, 2 канала, 192 Кбит/сек, 48,0 КГц



Общее
Полное имя : D:Frozen.PlanetFrozen.Planet.Episode.8.Science.at.the.End.of.the.Earth.avi
Формат : AVI
Формат/Информация : Audio Video Interleave
Размер файла : 349 Мбайт
Продолжительность : 21 м.
Общий поток : 2302 Кбит/сек
Программа кодирования : VirtualDubMod 1.5.10.3 | www.virtualdub-fr.org || (build 2550/release)
Библиотека кодирования : VirtualDubMod build 2550/release

Видео
Идентификатор : 0
Формат : MPEG-4 Visual
Профиль формата : Advanced Simple@L5
Параметр BVOP формата : 2
Параметр QPel формата : Нет
Параметр GMC формата : Без точки перехода
Параметр матрицы формата : Default (H.263)
Режим смешивания : Сжатый битовый поток
Идентификатор кодека : XVID
Идентификатор кодека/Подсказка : XviD
Продолжительность : 21 м.
Битрейт : 2100 Кбит/сек
Ширина : 720 пикселей
Высота : 400 пикселей
Соотношение сторон : 16:9
Частота кадров : 25,000 кадров/сек
Цветовое пространство : YUV
Субдискретизация насыщенности : 4:2:0
Битовая глубина : 8 бит
Тип развёртки : Прогрессивная
Метод сжатия : С потерями
Бит/(Пиксели*Кадры) : 0.292
Размер потока : 318 Мбайт (91%)
Библиотека кодирования : XviD 1.2.1 (UTC 2008-12-04)

Аудио
Идентификатор : 1
Формат : MPEG Audio
Версия формата : Version 1
Профиль формата : Layer 3
Идентификатор кодека : 55
Идентификатор кодека/Подсказка : MP3
Продолжительность : 21 м.
Вид битрейта : Постоянный
Битрейт : 192 Кбит/сек
Каналы : 2 канала
Частота : 48,0 КГц
Метод сжатия : С потерями
Размер потока : 29,1 Мбайт (8%)
Выравнивание : Соединение по промежуткам
Продолжительность промежутка : 40 мс. (1,00 видеокадр)
Время предзагрузки промежутка : 504 мс.
Библиотека кодирования : LAME3.99r
Настройки программы : -m s -V 4 -q 2 -lowpass 18.6 -b 192



Релиз от: R.G.RealMT



   Похожие торренты   Торрент   Размер 
В этой теме нет новых непрочитанных сообщений. Застывшая планета / Замёрзшая планета / Frozen Planet [01-08 из 08] (2011) BDRip 720p от R.G.RealMT | A1

5 | 6

16.04 ГБ

В этой теме нет новых непрочитанных сообщений. Замерзшая планета / Frozen planet [01-07 из 07] (2011) HDRip

3 | 2

5.67 ГБ

В этой теме нет новых непрочитанных сообщений. Замерзшая планета / Frozen planet [01-07 из 7] (2011) BDRip | КПК от Generalfilm

3 | 3

1.36 ГБ

В этой теме нет новых непрочитанных сообщений. Замерзшая планета / Frozen planet [01-07 из 07] (2011) BDRip 1080p

4 | 2

43.61 ГБ

В этой теме нет новых непрочитанных сообщений. Замерзшая планета / Frozen planet [Фильм о сериале] (2011) BDRip 1080p

2 | 3

2.27 ГБ

В этой теме нет новых непрочитанных сообщений. BBC: Планета Земля / BBC:Planet Earth [11 серий из 11]. (2006) HDRip от R.G.RealMT l Р1

277 | 50

9.13 ГБ

В этой теме нет новых непрочитанных сообщений. BBC: Планета динозавров / Planet Dinosaur (2011) BDRip 720p от R.G.RealMT | A

289 | 21

8.17 ГБ




Вы не можете начинать темы
Вы не можете отвечать на сообщения
Вы не можете редактировать свои сообщения
Вы не можете удалять свои сообщения
Вы не можете добавлять вложения

Перейти:  
Для Мосгорсуда, Роскомнадзора и рекламодателей: mosgorsud-torrent[собачка]yandex.ru
 Вход
ppkBB3cker v.2 © 2008-2014 @ PPK
[ Time : 1.059s | 17 Queries | GZIP : Off ]

Торрент трекер RUTOR.IN, Не можете зайти на rutor.org? Какой новый адрес рутор? Какое зеркало рутор? Не работает rutor.org и зеркала? Тогда наш торрент специально для вас. Rutor.in неофициальное зеркало rutor. В случае если у Вас заблокирован rutor или вдруг Вы не можете на него зайти, то Вы без труда сможете скачать бесплатно и без рекламы последние новинки кино, игр, сериалов и прочего у нас, на Rutor.in. Не нужно использовать прокси, чтобы зайти на рутор, достаточно воспользоваться нашим ресурсом. Все новые фильмы, игры, сериалы, книги и музыка за 2013 и 2014 годы через торрент бесплатно. Скачивайте фильмы в хорошем качестве, игры для пк, xbox, playstation без регистрации. У нас вы найдете новые Зарубежные сериалы и Русские сериалы 2013, 2014, 2015 годов. Оставайтесь с нами, качайте любимые фильмы, игры, сериалы, книги и музыку.
cron