img image001 image001 image001 image001 image001 image001 image001 image001 image001 image001 image001 image001 image001 image001 image001

Planets Sun Sun Sun
Статистика раздачи
Автор: Снежана | Размер: 1.54 ГБ | Добавлен: 25 июл 2013
Раздают: 2    Качают: 3
Скачать торрент
Скачать торрент
Описание торрента

СообщениеДобавлено: 25 июл 2013 

#77

Информация о фильме
Название: Хлеб наш насущный
Оригинальное название: Our Daily Bread / Unser täglich Brot
Жанр: Документальный
Год выхода: 2005
Режиссер: Nikolaus Geyrhalter

О фильме:
Потрясающие кадры документируют зрителю до сих пор не познаный им мир высокотехнологичной сельхозпромышленности. Производство продуктов питания в разных населенных пунктах Европы кажется утопией - но лишь на первый взгляд. В картине присутствуют, например, захватывающие сюжеты о машине, способной в течение пятнадцати минут отряхнуть маслину, машине для кастрации поросят и многих других приспособлениях, повышающих эффективность крупного производства на максимум.

В фильме нет ни рассказчика, ни музыки, ни статистик, ни интервью; холодный глаз кинокамеры запечатлевает исключительно близость потребителя и потребляемого, время и пространство заполняется неспешным наблюдением, фон создает лишь скрежетание металла и крики животных. Стерильные коридоры и монументальность машин, представленных в качестве своеобразных живых существ, перемещающих продукты питания на стол людей, ассоциируются с фантастикой С. Кубрика. С современным производством отождествляются машины, все живое переходит на второй и последующие планы...



Страна: Германия, Австрия
Продолжительность: 01:31:58
Перевод: Не требуется

Качество: HDRip
Формат:AVI
Видео кодек: XviD
Аудио кодек: MP3
Видео: 16:9, 2099 Кбит/сек, 720x400, 24,000 кадра/сек
Аудио: MP3, 2 канала, 192 Кбит/сек, 48,0 КГц



Общее
Полное имя : D:Our Daily Bread.avi
Формат : AVI
Формат/Информация : Audio Video Interleave
Размер файла : 1,54 Гбайт
Продолжительность : 1 ч. 35 м.
Общий поток : 2301 Кбит/сек
Программа кодирования : VirtualDubMod 1.5.10.3 | www.virtualdub-fr.org || (build 2550/release)
Библиотека кодирования : VirtualDubMod build 2550/release

Видео
Идентификатор : 0
Формат : MPEG-4 Visual
Профиль формата : Advanced Simple@L5
Параметр BVOP формата : 2
Параметр QPel формата : Нет
Параметр GMC формата : Без точки перехода
Параметр матрицы формата : Default (H.263)
Режим смешивания : Сжатый битовый поток
Идентификатор кодека : XVID
Идентификатор кодека/Подсказка : XviD
Продолжительность : 1 ч. 35 м.
Битрейт : 2099 Кбит/сек
Ширина : 720 пикселей
Высота : 400 пикселей
Соотношение сторон : 16:9
Частота кадров : 24,000 кадра/сек
Цветовое пространство : YUV
Субдискретизация насыщенности : 4:2:0
Битовая глубина : 8 бит
Тип развёртки : Прогрессивная
Метод сжатия : С потерями
Бит/(Пиксели*Кадры) : 0.304
Размер потока : 1,41 Гбайт (91%)
Библиотека кодирования : XviD 1.2.1 (UTC 2008-12-04)

Аудио
Идентификатор : 1
Формат : MPEG Audio
Версия формата : Version 1
Профиль формата : Layer 3
Идентификатор кодека : 55
Идентификатор кодека/Подсказка : MP3
Продолжительность : 1 ч. 35 м.
Вид битрейта : Постоянный
Битрейт : 192 Кбит/сек
Каналы : 2 канала
Частота : 48,0 КГц
Метод сжатия : С потерями
Размер потока : 132 Мбайт (8%)
Выравнивание : Соединение по промежуткам
Продолжительность промежутка : 42 мс. (1,00 видеокадр)
Время предзагрузки промежутка : 504 мс.
Библиотека кодирования : LAME3.99r
Настройки программы : -m s -V 4 -q 2 -lowpass 18.6 -b 192

Релиз от: R.G.RealMT



   Похожие торренты   Торрент   Размер 
В этой теме нет новых непрочитанных сообщений. Хлеб наш насущный / Our Daily Bread / Unser täglich Brot (2005) DVD-5

2 | 2

3.83 ГБ

В этой теме нет новых непрочитанных сообщений. Хлеб наш насущный / Our Daily Bread / Unser täglich Brot (2005) BDRip

0 | 1

8.35 ГБ

В этой теме нет новых непрочитанных сообщений. Черный хлеб / Pa Negre / Pan Negro / Black Bread (2010) HDRip

3 | 1

745.05 МБ

В этой теме нет новых непрочитанных сообщений. Черный хлеб / Pa negre / Pan Negro / Black Bread (2010) HDRip-AVC | iPhone

4 | 6

624.33 МБ

В этой теме нет новых непрочитанных сообщений. Хлеб наш насущный. Правда о дрожжах и кефире. (2007) DVDRip

0 | 3

601.22 МБ

В этой теме нет новых непрочитанных сообщений. Хлеб и Розы / Bread and Roses (2000) DVDRip-AVC от Temperest

0 | 2

2.7 ГБ

В этой теме нет новых непрочитанных сообщений. Черный хлеб / Pa Negre / Pan Negro / Black Bread (2010) BDRip 720p от FireBit

2 | 2

2.32 ГБ




Вы не можете начинать темы
Вы не можете отвечать на сообщения
Вы не можете редактировать свои сообщения
Вы не можете удалять свои сообщения
Вы не можете добавлять вложения

Перейти:  
Для Мосгорсуда, Роскомнадзора и рекламодателей: mosgorsud-torrent[собачка]yandex.ru
 Вход
ppkBB3cker v.2 © 2008-2014 @ PPK
[ Time : 0.564s | 14 Queries | GZIP : Off ]

Торрент трекер RUTOR.IN, Не можете зайти на rutor.org? Какой новый адрес рутор? Какое зеркало рутор? Не работает rutor.org и зеркала? Тогда наш торрент специально для вас. Rutor.in неофициальное зеркало rutor. В случае если у Вас заблокирован rutor или вдруг Вы не можете на него зайти, то Вы без труда сможете скачать бесплатно и без рекламы последние новинки кино, игр, сериалов и прочего у нас, на Rutor.in. Не нужно использовать прокси, чтобы зайти на рутор, достаточно воспользоваться нашим ресурсом. Все новые фильмы, игры, сериалы, книги и музыка за 2013 и 2014 годы через торрент бесплатно. Скачивайте фильмы в хорошем качестве, игры для пк, xbox, playstation без регистрации. У нас вы найдете новые Зарубежные сериалы и Русские сериалы 2013, 2014, 2015 годов. Оставайтесь с нами, качайте любимые фильмы, игры, сериалы, книги и музыку.