img image001 image001 image001 image001 image001 image001 image001 image001 image001 image001 image001 image001 image001 image001 image001

Planets Sun Sun Sun
Статистика раздачи
Автор: Снежана | Размер: 774.65 МБ | Добавлен: 24 июл 2013
Раздают: 2    Качают: 3
Скачать торрент
Скачать торрент
Описание торрента

СообщениеДобавлено: 24 июл 2013 

#77

Год выпуска: 2010
Страна: National Geographic Television (США), NOVA/WGBH Boston (Великобритания)
Жанр: Документальный
Продолжительность: 00:47:37
Перевод: Профессиональный одноголосый закадровый

Русские субтитры: нет

Описание: На Багамских островах лучшие пещерные дайверы погружаются в голубую бездну... Они исследуют подводные пещеры, наполненные загадками и дайверами, которым не удалось их покинуть живыми. В расчете на количество попыток, дайвинг - самый опасный спорт на земле. Им грозят обрушения скал, потеря сознания и паника. Они делают это ради острых ощущений, для того чтобы быть первыми и чтобы найти древние останки. Эти пещеры, голубые бездны, - жидкие хранилища времени, где ты сталкиваешься лицом к лицу с прошлым. Сейчас экстремальные дайверы пытаются раскрыть тайну затерянного мира. Но смогут ли они выжить в этой враждебной среде под давлением, под водой, под землей?...

Качество: HDRip
Формат:AVI
Видео кодек: XviD
Аудио кодек: MP3
Видео: 16:9, 2100 Кбит/сек, 720x400, 25,000 кадров/сек
Аудио: MP3, 2 канала, 192 Кбит/сек, 48,0 КГц



Общее
Полное имя : D:Pogruwenie.v.labirint.2010.avi
Формат : AVI
Формат/Информация : Audio Video Interleave
Размер файла : 775 Мбайт
Продолжительность : 47 м.
Общий поток : 2301 Кбит/сек
Программа кодирования : VirtualDubMod 1.5.10.3 | www.virtualdub-fr.org || (build 2550/release)
Библиотека кодирования : VirtualDubMod build 2550/release

Видео
Идентификатор : 0
Формат : MPEG-4 Visual
Профиль формата : Advanced Simple@L5
Параметр BVOP формата : 2
Параметр QPel формата : Нет
Параметр GMC формата : Без точки перехода
Параметр матрицы формата : Default (H.263)
Режим смешивания : Сжатый битовый поток
Идентификатор кодека : XVID
Идентификатор кодека/Подсказка : XviD
Продолжительность : 47 м.
Битрейт : 2100 Кбит/сек
Ширина : 720 пикселей
Высота : 400 пикселей
Соотношение сторон : 16:9
Частота кадров : 25,000 кадров/сек
Цветовое пространство : YUV
Субдискретизация насыщенности : 4:2:0
Битовая глубина : 8 бит
Тип развёртки : Прогрессивная
Метод сжатия : С потерями
Бит/(Пиксели*Кадры) : 0.292
Размер потока : 707 Мбайт (91%)
Библиотека кодирования : XviD 1.2.1 (UTC 2008-12-04)

Аудио
Идентификатор : 1
Формат : MPEG Audio
Версия формата : Version 1
Профиль формата : Layer 3
Идентификатор кодека : 55
Идентификатор кодека/Подсказка : MP3
Продолжительность : 47 м.
Вид битрейта : Постоянный
Битрейт : 192 Кбит/сек
Каналы : 2 канала
Частота : 48,0 КГц
Метод сжатия : С потерями
Размер потока : 64,6 Мбайт (8%)
Выравнивание : Соединение по промежуткам
Продолжительность промежутка : 40 мс. (1,00 видеокадр)
Время предзагрузки промежутка : 504 мс.
Библиотека кодирования : LAME3.99r
Настройки программы : -m s -V 4 -q 2 -lowpass 18.6 -b 192

Релиз от: R.G.RealMT



   Похожие торренты   Торрент   Размер 
В этой теме нет новых непрочитанных сообщений. National Geographic: Погружение в лабиринт / Diving The Labyrinth / Blue Holes. Tauchen im Labyrinth (2010) HDRip от Generalfilm

4 | 17

1.36 ГБ

В этой теме нет новых непрочитанных сообщений. Погружение в лабиринт / Diving The Labyrinth / Blue Holes. Tauchen im Labyrinth (2010) BDRip [720p] от HQ-ViDEO.

3 | 6

3.04 ГБ

В этой теме нет новых непрочитанных сообщений. Лабиринт / Labyrinth (1986) HDRip

20 | 3

746.83 МБ

В этой теме нет новых непрочитанных сообщений. Лабиринт / Labyrinth (1986) HDRip от Scarabey | P

52 | 5

747.8 МБ

В этой теме нет новых непрочитанных сообщений. Лабиринт / Labyrinth (1986) HDRip от KinoZalSat

7 | 2

1.45 ГБ

В этой теме нет новых непрочитанных сообщений. Лабиринт / Labyrinth [S01] (2012) HDRip | BaibaKo

0 | 2

3.14 ГБ

В этой теме нет новых непрочитанных сообщений. Лабиринт / Labyrinth (1986) HDRip от Scarabey | P

108 | 8

1.45 ГБ




Вы не можете начинать темы
Вы не можете отвечать на сообщения
Вы не можете редактировать свои сообщения
Вы не можете удалять свои сообщения
Вы не можете добавлять вложения

Перейти:  
Для Мосгорсуда, Роскомнадзора и рекламодателей: mosgorsud-torrent[собачка]yandex.ru
 Вход
ppkBB3cker v.2 © 2008-2014 @ PPK
[ Time : 0.053s | 15 Queries | GZIP : Off ]

cron