img image001 image001 image001 image001 image001 image001 image001 image001 image001 image001 image001 image001 image001 image001 image001

Planets Sun Sun Sun
Статистика раздачи
Автор: Снежана | Размер: 2.18 ГБ | Добавлен: 25 июл 2013
Раздают: 3    Качают: 2
Скачать торрент
Скачать торрент
Описание торрента

СообщениеДобавлено: 25 июл 2013 

#77

Информация о фильме
Название: Последнее пристанище тамплиеров
Оригинальное название: The last stand of the templar's / Die Tempelritter - Die Rache Saladins
Год выхода: 2010
Жанр: Документальный, научно-популярный, история
Режиссер: Эндрю Килауэ / Andrew Kilaue

О фильме: Август 1179 года, переправа Иакова - стратегически важное место в самом сердце Святой земли. Здесь рыцари-тамплиеры, лучшие воины крестоносцев, возводят мощную крепость. Салладин, бесстрашный предводитель мусульман, приходит в ярость... Его войска совершают нападение на эти укрепления. За 6 дней кровавой резни было истреблено 800 тамплиеров...

Выпущено: США / Nova Scotia Film
Продолжительность: 00:42:12
Перевод: Профессиональный (многоголосый закадровый)/[СВ-Дубль по заказу ГТРК "Культура"]

Файл
Качество: BDRip 720p
Формат:MKV
Видео кодек: x264
Аудио кодек: AC3
Видео: 16:9, 7194 Кбит/сек, 1280x720, 25 кадра/сек
Аудио: AC3, 2 канала, 192 Кбит/сек, 48,0 КГц

General
Unique ID : 227034967450046567349872425101292355016 (0xAACD581F080E381BAE397E4BA55E3DC8)
Complete name : C:UsersveebruarDesktopДокументальныйPoslednee pristanishhe tamplierov_BDRip 720[R.G.RealMT] by veebrua.mkv
Format : Matroska
Format version : Version 2
File size : 2.18 GiB
Duration : 42mn 12s
Overall bit rate : 7 389 Kbps
Encoded date : UTC 2013-03-19 11:15:48
Writing application : mkvmerge v5.8.0 ('No Sleep / Pillow') built on Sep 2 2012 15:37:04
Writing library : libebml v1.2.3 + libmatroska v1.3.0

Video
ID : 1
Format : AVC
Format/Info : Advanced Video Codec
Format profile : High@L4.1
Format settings, CABAC : Yes
Format settings, ReFrames : 7 frames
Codec ID : V_MPEG4/ISO/AVC
Duration : 42mn 12s
Bit rate : 7 194 Kbps
Width : 1 280 pixels
Height : 720 pixels
Display aspect ratio : 16:9
Frame rate mode : Constant
Frame rate : 25.000 fps
Color space : YUV
Chroma subsampling : 4:2:0
Bit depth : 8 bits
Scan type : Progressive
Bits/(Pixel*Frame) : 0.312
Stream size : 2.08 GiB (95%)
Writing library : x264 core 125 r2208 d9d2288
Encoding settings : cabac=1 / ref=7 / deblock=1:-3:-3 / analyse=0x3:0x113 / me=hex / subme=9 / psy=1 / psy_rd=1.00:0.00 / mixed_ref=1 / me_range=16 / chroma_me=1 / trellis=1 / 8x8dct=1 / cqm=0 / deadzone=21,11 / fast_pskip=1 / chroma_qp_offset=-2 / threads=6 / lookahead_threads=1 / sliced_threads=0 / nr=0 / decimate=1 / interlaced=0 / bluray_compat=0 / constrained_intra=0 / bframes=7 / b_pyramid=2 / b_adapt=1 / b_bias=0 / direct=3 / weightb=1 / open_gop=0 / weightp=2 / keyint=250 / keyint_min=25 / scenecut=40 / intra_refresh=0 / rc_lookahead=40 / rc=2pass / mbtree=1 / bitrate=7194 / ratetol=1.0 / qcomp=0.60 / qpmin=0 / qpmax=69 / qpstep=4 / cplxblur=20.0 / qblur=0.5 / vbv_maxrate=62500 / vbv_bufsize=50000 / nal_hrd=none / ip_ratio=1.40 / aq=1:1.00
Default : Yes
Forced : No

Audio
ID : 2
Format : AC-3
Format/Info : Audio Coding 3
Mode extension : CM (complete main)
Format settings, Endianness : Big
Codec ID : A_AC3
Duration : 42mn 12s
Bit rate mode : Constant
Bit rate : 192 Kbps
Channel(s) : 2 channels
Channel positions : Front: L R
Sampling rate : 48.0 KHz
Bit depth : 16 bits
Compression mode : Lossy
Stream size : 58.0 MiB (3%)
Default : Yes
Forced : No



Релиз от: от R.G.RealMT



   Похожие торренты   Торрент   Размер 
В этой теме нет новых непрочитанных сообщений. National Geographic: Последнее пристанище тамплиеров / The last stand of the templar's / Die Tempelritter - Die Rache Saladins (2010) HDRip

6 | 3

693.73 МБ

В этой теме нет новых непрочитанных сообщений. NG: Последнее пристанище тамплиеров / Die Tempelritter - Die Rache Saladins (2010) BDRip 720p от GYN

6 | 2

2.91 ГБ

В этой теме нет новых непрочитанных сообщений. National Geographic: Самые опасные акулы / National Geographic: World's Deadliest Sharks (2011) HDTVRip от R.G.RealMT | P1

5 | 3

790.21 МБ

В этой теме нет новых непрочитанных сообщений. National Geographic: Секреты дикой Индии / National Geographic: Secrets of Wild India [01-03 из 03] (2011) HDRip от R.G.RealMT | А

3 | 2

2.32 ГБ

В этой теме нет новых непрочитанных сообщений. National Geographic: Кумбха мела / National Geographic: World's Biggest Festival Kumbh Mela (2013) HDTVRip от R.G.RealMT | P1

0 | 3

738.41 МБ

В этой теме нет новых непрочитанных сообщений. National Geographic: Рождение Европы / National Geographic: Birth of Europe [01-03 из 03] (2011) HDRip от R.G.RealMT

2 | 5

2.17 ГБ

В этой теме нет новых непрочитанных сообщений. National Geographic: Гид путешественника по планетам / National Geographic: A Traveler's Guide to the Planets (2010)BDRip-AVC 720p

1 | 163

13.13 ГБ




Вы не можете начинать темы
Вы не можете отвечать на сообщения
Вы не можете редактировать свои сообщения
Вы не можете удалять свои сообщения
Вы не можете добавлять вложения

Перейти:  
Для Мосгорсуда, Роскомнадзора и рекламодателей: mosgorsud-torrent[собачка]yandex.ru
 Вход
ppkBB3cker v.2 © 2008-2014 @ PPK
[ Time : 0.057s | 14 Queries | GZIP : Off ]

Торрент трекер RUTOR.IN, Не можете зайти на rutor.org? Какой новый адрес рутор? Какое зеркало рутор? Не работает rutor.org и зеркала? Тогда наш торрент специально для вас. Rutor.in неофициальное зеркало rutor. В случае если у Вас заблокирован rutor или вдруг Вы не можете на него зайти, то Вы без труда сможете скачать бесплатно и без рекламы последние новинки кино, игр, сериалов и прочего у нас, на Rutor.in. Не нужно использовать прокси, чтобы зайти на рутор, достаточно воспользоваться нашим ресурсом. Все новые фильмы, игры, сериалы, книги и музыка за 2013 и 2014 годы через торрент бесплатно. Скачивайте фильмы в хорошем качестве, игры для пк, xbox, playstation без регистрации. У нас вы найдете новые Зарубежные сериалы и Русские сериалы 2013, 2014, 2015 годов. Оставайтесь с нами, качайте любимые фильмы, игры, сериалы, книги и музыку.