img image001 image001 image001 image001 image001 image001 image001 image001 image001 image001 image001 image001 image001 image001 image001

Planets Sun Sun Sun
Статистика раздачи
Автор: Снежана | Размер: 1.53 ГБ | Добавлен: 24 июл 2013
Раздают: 1    Качают: 2
Скачать торрент
Скачать торрент
Описание торрента

СообщениеДобавлено: 24 июл 2013 

#77

Информация о фильме
Название: Виски. Версия Айлы
Оригинальное название: Whisky: The Islay Edition
Год выхода: 2011
Жанр: документальный
Сценарий: Фабиан Моллеман / Fabian Mollema

Описание:
Документальный фильм "Виски. Версия Айлы" переносит зрителя в святая святых шотландского золота. Его цель не просто рассказать нам о виски, а показать тонкости этого напитка, искусство дегустации, ремесло дистилляции, истории заводов и богатство острова Айлы.

В бонусном фильме нам расскажут о производстве пива на острове Айла.

Доп. информация: Озвучено студией «Омикрон» специально для HDCLUB.
Перевод и озвучивание осуществлено в рамках сервиса "Озвучивание".
Спонсоры: Menkaura, tambov68, levanevski, borisol55, SemenS, benjjjamin, catismad, stanislav222, a_plus_q, ygorgor, eholin, baranovna, Badimo, wildhealer, IL, Кириллка, Shd_81, RAUL, Moritz, mentat, sns59, Nowikoff

Страна: Великобритания
Продолжительность: 01:02:27
Перевод: Профессиональный одноголосый закадровый - студия «Омикрон»

Рип: hintoz

Файл
Качество: BDRip-AVC (источник BDRemux 1080p HDCLUB)
Формат: MKV
Видео кодек: x264
Аудио кодек: AC3
Видео: 1024x576, 24.000 fps, 2 250 Kbps, 0.159 bit/pixel
Аудио Rus: 16 bits, 448 kbps, 48,0 kHz, 5.1
Аудио Eng: 16 bits, 448 kbps, 48,0 kHz, 5.1

Продолжительность: 00:07:11
Видео: 1024x576, 24.000 fps, 2 250 Kbps, 0.159 bit/pixel
Аудио Rus: 16 bits, 448 kbps, 48,0 kHz, 2.0
Аудио Eng: 16 bits, 448 kbps, 48,0 kHz, 2.0
General
Unique ID : 200563329765369259941408974954759018578 (0x96E3179DF73108638B71302D13E55852)
Complete name : F:VideoUploadFilmsWhisky.The.Islay.Edition.2011Whisky.The.Islay.Edition.2011.BDRip.AVC.VO.Omikron-hintoz.mkv
Format : Matroska
Format version : Version 4 / Version 2
File size : 1.37 GiB
Duration : 1h 2mn
Overall bit rate : 3 146 Kbps
Movie name : Rip by hintoz
Encoded date : UTC 2013-03-19 19:44:11
Writing application : mkvmerge v6.1.0 ('Old Devil') built on Mar 2 2013 14:32:37
Writing library : libebml v1.3.0 + libmatroska v1.4.0

Video
ID : 1
Format : AVC
Format/Info : Advanced Video Codec
Format profile : High@L3.1
Format settings, CABAC : Yes
Format settings, ReFrames : 5 frames
Codec ID : V_MPEG4/ISO/AVC
Duration : 1h 2mn
Bit rate : 2 250 Kbps
Width : 1 024 pixels
Height : 576 pixels
Display aspect ratio : 16:9
Frame rate mode : Constant
Frame rate : 24.000 fps
Color space : YUV
Chroma subsampling : 4:2:0
Bit depth : 8 bits
Scan type : Progressive
Bits/(Pixel*Frame) : 0.159
Stream size : 977 MiB (70%)
Writing library : x264 core 129 r2245 bc13772
Encoding settings : cabac=1 / ref=5 / deblock=1:0:0 / analyse=0x3:0x133 / me=umh / subme=10 / psy=1 / psy_rd=1.00:0.15 / mixed_ref=1 / me_range=32 / chroma_me=1 / trellis=2 / 8x8dct=1 / cqm=0 / deadzone=21,11 / fast_pskip=0 / chroma_qp_offset=-3 / threads=12 / lookahead_threads=2 / sliced_threads=0 / nr=0 / decimate=0 / interlaced=0 / bluray_compat=0 / constrained_intra=0 / bframes=4 / b_pyramid=2 / b_adapt=2 / b_bias=0 / direct=3 / weightb=1 / open_gop=0 / weightp=2 / keyint=240 / keyint_min=24 / scenecut=40 / intra_refresh=0 / rc_lookahead=40 / rc=2pass / mbtree=1 / bitrate=2250 / ratetol=1.0 / qcomp=0.60 / qpmin=0 / qpmax=69 / qpstep=4 / cplxblur=20.0 / qblur=0.5 / ip_ratio=1.40 / aq=1:1.00
Language : English
Default : Yes
Forced : No

Audio #1
ID : 2
Format : AC-3
Format/Info : Audio Coding 3
Mode extension : CM (complete main)
Format settings, Endianness : Big
Codec ID : A_AC3
Duration : 1h 2mn
Bit rate mode : Constant
Bit rate : 448 Kbps
Channel(s) : 6 channels
Channel positions : Front: L C R, Side: L R, LFE
Sampling rate : 48.0 KHz
Bit depth : 16 bits
Compression mode : Lossy
Stream size : 200 MiB (14%)
Title : VO студия «Омикрон»
Language : Russian
Default : Yes
Forced : No

Audio #2
ID : 3
Format : AC-3
Format/Info : Audio Coding 3
Mode extension : CM (complete main)
Format settings, Endianness : Big
Codec ID : A_AC3
Duration : 1h 2mn
Bit rate mode : Constant
Bit rate : 448 Kbps
Channel(s) : 6 channels
Channel positions : Front: L C R, Side: L R, LFE
Sampling rate : 48.0 KHz
Bit depth : 16 bits
Compression mode : Lossy
Stream size : 200 MiB (14%)
Title : Original
Language : English
Default : No
Forced : No





   Похожие торренты   Торрент   Размер 
В этой теме нет новых непрочитанных сообщений. Виски: Версия Айлы + Бонус / Whisky: The Islay Edition (2011) BDRip 720p от GYN

5 | 2

2.91 ГБ

В этой теме нет новых непрочитанных сообщений. Виски: Версия Айлы + Бонус / Whisky: The Islay Edition (2011) BDRip 720p

10 | 2

2.3 ГБ

В этой теме нет новых непрочитанных сообщений. Виски: Версия Айлы + Бонус / Whisky: The Islay Edition (2011) HDRip

16 | 3

1.24 ГБ

В этой теме нет новых непрочитанных сообщений. Виски: Версия Айлы + Бонус / Whisky: The Islay Edition (2011) Blu-Ray-Remux (1080p) от HDClub

1 | 3

10.18 ГБ

В этой теме нет новых непрочитанных сообщений. Виски с водкой / Whisky mit Wodka (2009) DVDRip

1 | 10

1.45 ГБ

В этой теме нет новых непрочитанных сообщений. Виски с водкой / Whisky mit Wodka (2009) DVDRip | Лицензия

1 | 1

746.02 МБ

В этой теме нет новых непрочитанных сообщений. Виски и водка / Whisky mit Wodka (2009) DVDRip от cinemastreet | КПК

0 | 2

284.73 МБ




Вы не можете начинать темы
Вы не можете отвечать на сообщения
Вы не можете редактировать свои сообщения
Вы не можете удалять свои сообщения
Вы не можете добавлять вложения

Перейти:  
Для Мосгорсуда, Роскомнадзора и рекламодателей: mosgorsud-torrent[собачка]yandex.ru
 Вход
ppkBB3cker v.2 © 2008-2014 @ PPK
[ Time : 2.355s | 16 Queries | GZIP : Off ]

Торрент трекер RUTOR.IN, Не можете зайти на rutor.org? Какой новый адрес рутор? Какое зеркало рутор? Не работает rutor.org и зеркала? Тогда наш торрент специально для вас. Rutor.in неофициальное зеркало rutor. В случае если у Вас заблокирован rutor или вдруг Вы не можете на него зайти, то Вы без труда сможете скачать бесплатно и без рекламы последние новинки кино, игр, сериалов и прочего у нас, на Rutor.in. Не нужно использовать прокси, чтобы зайти на рутор, достаточно воспользоваться нашим ресурсом. Все новые фильмы, игры, сериалы, книги и музыка за 2013 и 2014 годы через торрент бесплатно. Скачивайте фильмы в хорошем качестве, игры для пк, xbox, playstation без регистрации. У нас вы найдете новые Зарубежные сериалы и Русские сериалы 2013, 2014, 2015 годов. Оставайтесь с нами, качайте любимые фильмы, игры, сериалы, книги и музыку.
cron