img image001 image001 image001 image001 image001 image001 image001 image001 image001 image001 image001 image001 image001 image001 image001

Planets Sun Sun Sun
Статистика раздачи
Автор: Снежана | Размер: 972.95 МБ | Добавлен: 25 июл 2013
Раздают: 9    Качают: 4
Скачать торрент
Скачать торрент
Описание торрента

СообщениеДобавлено: 25 июл 2013 

#77

Год выпуска: 2012
Страна: Великобритания
Студия: BBC, Science Channel Co-production
Жанр: Документальный
Продолжительность: 00:59:07
Перевод: Любительский, одноголосый

Режиссер: Gaby Hornsby
Редактор Эпизода: Aidan Laverty
Диктор и ведущий: Jim Al-Khalili

Описание: Передача Горизонты Науки проникает за кулисы ЦЕРНа отслеживая одно из
самых эпических и дорогих научных исследований всех времен и народов:
поиск частиц Хиггса, которые, как полагают, дают массу всем частицам в нашей Вселенной.
Тем не менее, охота за бозоном Хиггса является частью гораздо более грандиозных поисков,
проясняющих как работает вся Вселенная. Она обещает помочь ответить на такие вопросы как,
сама возможность нашего существования, а так же это жизненно важный фрагмент единой теории поля.
В основе погони за неуловимыми частицами лежит особенность, которая делает снежинки красивыми и
человеческие лица привлекательными: простая и очаровательная идея симметрии всего сущего...



Качество: HDTVRip (исходник HDTVRip 720p)
Формат:AVI
Видео кодек: XviD
Аудио кодек: MP3
Видео: 16:9, 2100 Кбит/сек, 720x400, 25,000 кадров/сек
Аудио: MP3, 2 канала, 192 Кбит/сек, 48,0 КГц



Общее
Полное имя : D:BBC Horizon - The Hunt for Higgs.avi
Формат : AVI
Формат/Информация : Audio Video Interleave
Размер файла : 973 Мбайт
Продолжительность : 59 м.
Общий поток : 2302 Кбит/сек
Программа кодирования : VirtualDubMod 1.5.10.3 | www.virtualdub-fr.org || (build 2550/release)
Библиотека кодирования : VirtualDubMod build 2550/release

Видео
Идентификатор : 0
Формат : MPEG-4 Visual
Профиль формата : Advanced Simple@L5
Параметр BVOP формата : 2
Параметр QPel формата : Нет
Параметр GMC формата : Без точки перехода
Параметр матрицы формата : Default (H.263)
Режим смешивания : Сжатый битовый поток
Идентификатор кодека : XVID
Идентификатор кодека/Подсказка : XviD
Продолжительность : 59 м.
Битрейт : 2100 Кбит/сек
Ширина : 720 пикселей
Высота : 400 пикселей
Соотношение сторон : 16:9
Частота кадров : 25,000 кадров/сек
Цветовое пространство : YUV
Субдискретизация насыщенности : 4:2:0
Битовая глубина : 8 бит
Тип развёртки : Прогрессивная
Метод сжатия : С потерями
Бит/(Пиксели*Кадры) : 0.292
Размер потока : 888 Мбайт (91%)
Библиотека кодирования : XviD 1.2.1 (UTC 2008-12-04)

Аудио
Идентификатор : 1
Формат : MPEG Audio
Версия формата : Version 1
Профиль формата : Layer 3
Идентификатор кодека : 55
Идентификатор кодека/Подсказка : MP3
Продолжительность : 59 м.
Вид битрейта : Постоянный
Битрейт : 192 Кбит/сек
Каналы : 2 канала
Частота : 44,1 КГц
Метод сжатия : С потерями
Размер потока : 81,2 Мбайт (8%)
Выравнивание : Разделение по промежуткам
Продолжительность промежутка : 40 мс. (1,00 видеокадр)
Время предзагрузки промежутка : 500 мс.
Библиотека кодирования : LAME3.99r
Настройки программы : -m s -V 4 -q 2 -lowpass 18.6 -b 192

Релиз от: R.G.RealMT



   Похожие торренты   Торрент   Размер 
В этой теме нет новых непрочитанных сообщений. BBC. Охота за бозоном Хиггса / BBC. The Hunt for Higgs (2012) HDTVRip 720p

13 | 2

1.41 ГБ

В этой теме нет новых непрочитанных сообщений. Военная охота / Охота на поле боя / War Hunt (1962) HDTVRip от Pshichko66 | P2

163 | 9

1.27 ГБ

В этой теме нет новых непрочитанных сообщений. Охота за Голлумом / The Hunt For Gollum (2009) HDTVRip

128 | 7

471.1 МБ

В этой теме нет новых непрочитанных сообщений. Охота / The Hunt / Jagten (2012) BDRip 1080p | P

89 | 35

12.83 ГБ

В этой теме нет новых непрочитанных сообщений. Охота / The Hunt / Jagten (2012) BDRip от HQCLUB

80 | 2

2.18 ГБ

В этой теме нет новых непрочитанных сообщений. Охота / Jagten / The Hunt (2012) HDRip-AVC от Leo.pard | P

229 | 48

743.95 МБ

В этой теме нет новых непрочитанных сообщений. Охота / The Hunt / Jagten (2012) BDRip от Youtracker

131 | 13

1.46 ГБ




Вы не можете начинать темы
Вы не можете отвечать на сообщения
Вы не можете редактировать свои сообщения
Вы не можете удалять свои сообщения
Вы не можете добавлять вложения

Перейти:  
Для Мосгорсуда, Роскомнадзора и рекламодателей: mosgorsud-torrent[собачка]yandex.ru
 Вход
ppkBB3cker v.2 © 2008-2014 @ PPK
[ Time : 0.563s | 16 Queries | GZIP : Off ]

Торрент трекер RUTOR.IN, Не можете зайти на rutor.org? Какой новый адрес рутор? Какое зеркало рутор? Не работает rutor.org и зеркала? Тогда наш торрент специально для вас. Rutor.in неофициальное зеркало rutor. В случае если у Вас заблокирован rutor или вдруг Вы не можете на него зайти, то Вы без труда сможете скачать бесплатно и без рекламы последние новинки кино, игр, сериалов и прочего у нас, на Rutor.in. Не нужно использовать прокси, чтобы зайти на рутор, достаточно воспользоваться нашим ресурсом. Все новые фильмы, игры, сериалы, книги и музыка за 2013 и 2014 годы через торрент бесплатно. Скачивайте фильмы в хорошем качестве, игры для пк, xbox, playstation без регистрации. У нас вы найдете новые Зарубежные сериалы и Русские сериалы 2013, 2014, 2015 годов. Оставайтесь с нами, качайте любимые фильмы, игры, сериалы, книги и музыку.