img image001 image001 image001 image001 image001 image001 image001 image001 image001 image001 image001 image001 image001 image001 image001

Planets Sun Sun Sun
Статистика раздачи
Автор: Снежана | Размер: 2.28 ГБ | Добавлен: 25 июл 2013
Раздают: 0    Качают: 2
Скачать торрент
Скачать торрент
Описание торрента

СообщениеДобавлено: 25 июл 2013 

#77

Информация о фильме
Название: Взгляд сверху: Крепость Британии
Оригинальное название: Sky View: Fortress Britain
Год выхода: 2007
Жанр: Телепутешествия, Документальный
Режиссер: Ричард Мервин / Richard Mervyn

О фильме:
В Великобритании есть тысячи крепостей: от примитивных земляных укреплений до каменных цитаделей, от сказочных замков до грозных фортов. Они стоят от Тинтагиля в Корнуэлле, где родился король Артур, до Данотара на севере, где Уильям Уоллес бросил вызов англичанам. Замок – наглядный символ власти, напоминание о том, что кто владеет крепостью, тот правит землёй.

Страна: UK
Студия: Skyworks Ltd
Продолжительность: 00:46:24
Перевод: Профессиональный (одноголосый)

Файл
Кодек: H.264
Качество: HDTV
Видео: 1920×1080i, 7028 Kbps, 25 fps
Звук: Dolby AC3, 48000Hz ,stereo ,192kbps

General
ID : 1 (0x1)
Complete name : G:TorrentFortress Britain.ts
Format : MPEG-TS
File size : 2.28 GiB
Duration : 46mn 24s
Overall bit rate : 7 028 Kbps
Maximum Overall bit rate : 35.5 Mbps
Video
ID : 4113 (0x1011)
Menu ID : 1 (0x1)
Format : AVC
Format/Info : Advanced Video Codec
Format profile : High@L4.0
Format settings, CABAC : Yes
Format settings, ReFrames : 3 frames
Codec ID : 27
Duration : 46mn 24s
Bit rate : 6 486 Kbps
Width : 1 920 pixels
Height : 1 080 pixels
Display aspect ratio : 16:9
Frame rate : 25.000 fps
Standard : Component
Color space : YUV
Chroma subsampling : 4:2:0
Bit depth : 8 bits
Scan type : Interlaced
Scan order : Top Field First
Bits/(Pixel*Frame) : 0.125
Stream size : 2.10 GiB (92%)
Color primaries : BT.709-5, BT.1361, IEC 61966-2-4, SMPTE RP177
Transfer characteristics : BT.709-5, BT.1361
Matrix coefficients : BT.709-5, BT.1361, IEC 61966-2-4 709, SMPTE RP177
Audio
ID : 4352 (0x1100)
Menu ID : 1 (0x1)
Format : AC-3
Format/Info : Audio Coding 3
Mode extension : CM (complete main)
Format settings, Endianness : Big
Codec ID : 129
Duration : 5s 120ms
Bit rate mode : Constant
Bit rate : 192 Kbps
Channel(s) : 2 channels
Channel positions : Front: L R
Sampling rate : 48.0 KHz
Bit depth : 16 bits
Compression mode : Lossy
Delay relative to video : -232ms
Stream size : 120 KiB (0%)
Language : Russian




   Похожие торренты   Торрент   Размер 
В этой теме нет новых непрочитанных сообщений. Крепость 1-2 / Fortress; Fortress II: Re-entry (1993-2000) 2 x DVD5 от New-Team | P | Лицензия

29 | 223

8.02 ГБ

В этой теме нет новых непрочитанных сообщений. Нашествие преступности: новое криминальное подполье Британии / Crime Invasion: Britain's New Underworld [01-09] (2007) PDTVRip

0 | 1

1.55 ГБ

В этой теме нет новых непрочитанных сообщений. Б-17 Летающая Крепость 2 / B-17 Flying Fortress: The Mighty Eighth (2007) PC | RePack от R.G. Catalyst Old Games

3 | 2

390.52 МБ

В этой теме нет новых непрочитанных сообщений. Вид сверху лучше / View from the Top (2003) DVDRip-AVC

14 | 2

1.93 ГБ

В этой теме нет новых непрочитанных сообщений. Вид сверху лучше / View from the Top (2003) DVDRip

59 | 10

1.73 ГБ

В этой теме нет новых непрочитанных сообщений. Вид сверху лучше / View from the Top (2003) WEB-DLRip от Deadmauvlad | D

99 | 18

1.45 ГБ

В этой теме нет новых непрочитанных сообщений. Вид сверху лучше / View from the Top (2003) WEB-DL 720p от HDClub

45 | 5

3.56 ГБ




Вы не можете начинать темы
Вы не можете отвечать на сообщения
Вы не можете редактировать свои сообщения
Вы не можете удалять свои сообщения
Вы не можете добавлять вложения

Перейти:  
Для Мосгорсуда, Роскомнадзора и рекламодателей: mosgorsud-torrent[собачка]yandex.ru
 Вход
ppkBB3cker v.2 © 2008-2014 @ PPK
[ Time : 0.044s | 14 Queries | GZIP : Off ]

Торрент трекер RUTOR.IN, Не можете зайти на rutor.org? Какой новый адрес рутор? Какое зеркало рутор? Не работает rutor.org и зеркала? Тогда наш торрент специально для вас. Rutor.in неофициальное зеркало rutor. В случае если у Вас заблокирован rutor или вдруг Вы не можете на него зайти, то Вы без труда сможете скачать бесплатно и без рекламы последние новинки кино, игр, сериалов и прочего у нас, на Rutor.in. Не нужно использовать прокси, чтобы зайти на рутор, достаточно воспользоваться нашим ресурсом. Все новые фильмы, игры, сериалы, книги и музыка за 2013 и 2014 годы через торрент бесплатно. Скачивайте фильмы в хорошем качестве, игры для пк, xbox, playstation без регистрации. У нас вы найдете новые Зарубежные сериалы и Русские сериалы 2013, 2014, 2015 годов. Оставайтесь с нами, качайте любимые фильмы, игры, сериалы, книги и музыку.