img image001 image001 image001 image001 image001 image001 image001 image001 image001 image001 image001 image001 image001 image001 image001

Planets Sun Sun Sun
Статистика раздачи
Автор: Снежана | Размер: 2.91 ГБ | Добавлен: 25 июл 2013
Раздают: 5    Качают: 2
Скачать торрент
Скачать торрент
Описание торрента

СообщениеДобавлено: 25 июл 2013 

Виски: Версия Айлы + Бонус / Whisky: The Islay Edition (2011) BDRip 720p
Релиз от GYN

Информация о фильме:
Название: Виски: Версия Айлы + Бонус
Оригинальное название: Whisky: The Islay Edition
Год выхода: 2011
Жанр: Документальный, Научно-познавательный, Исследования, Энология, История
Режиссёр: Олав Верховен, Фабиан Моллеман
Сюжет фильма:
Документальный фильм "Виски. Версия Айлы" переносит зрителя в святая святых шотландского золота. Его цель не просто рассказать нам о виски, а показать тонкости этого напитка, искусство дегустации, ремесло дистилляции, истории заводов и богатство острова Айлы. В бонусном фильме нам расскажут о производстве пива на острове Айла.

Страна: Великобритания
Продолжительность: 01:02:27 + 00:07:11
Перевод: Профессиональный одноголосый закадровый («Омикрон»)
Субтитры: Отсутствуют
Информация о файле:
Качество: BDRip 720p
Файл: MKV
Кодек: MPEG-4 AVC, H264 codec
Видео: 1280 x 720, 16:9; 24.000 fps; ~ 5565 kbps; 0.247 bit/pixel
Аудио: 48 kHz, AC3 Dolby Digital, 3/2 (L,C,R,l,r) + LFE ch, ~448.00 kbps avg
Размер: 2.62 Gb + 289 Mb (2/3 )

General
Unique ID : 232873843191383803942743297027195408315 (0xAF31DEEBE042916FB4B468603D6E0FBB)
Complete name : F:Whisky_The.Islay.Edition.2011.RUS.-GYNWhisky.mkv
Format : Matroska
Format version : Version 4 / Version 2
File size : 2.63 GiB
Duration : 1h 2mn
Overall bit rate mode : Variable
Overall bit rate : 6 020 Kbps
Movie name : Whisky: The Islay Edition (2011)
Encoded date : UTC 2013-03-22 14:44:05
Writing application : mkvmerge v6.1.0 ('Old Devil') built on Mar 2 2013 14:32:37
Writing library : libebml v1.3.0 + libmatroska v1.4.0
Video
ID : 1
Format : AVC
Format/Info : Advanced Video Codec
Format profile : High@L4.1
Format settings, CABAC : Yes
Format settings, ReFrames : 6 frames
Codec ID : V_MPEG4/ISO/AVC
Duration : 1h 2mn
Bit rate mode : Variable
Bit rate : 5 452 Kbps
Maximum bit rate : 5 565 Kbps
Width : 1 280 pixels
Height : 720 pixels
Display aspect ratio : 16:9
Frame rate : 24.000 fps
Color space : YUV
Chroma subsampling : 4:2:0
Bit depth : 8 bits
Scan type : Progressive
Bits/(Pixel*Frame) : 0.247
Stream size : 2.38 GiB (91%)
Title : Encoded by GYN
Default : Yes
Forced : No
Audio
ID : 2
Format : AC-3
Format/Info : Audio Coding 3
Mode extension : CM (complete main)
Codec ID : A_AC3
Duration : 1h 2mn
Bit rate mode : Constant
Bit rate : 448 Kbps
Channel(s) : 6 channels
Channel positions : Front: L C R, Side: L R, LFE
Sampling rate : 48.0 KHz
Bit depth : 16 bits
Compression mode : Lossy
Stream size : 200 MiB (7%)
Title : VO («Омикрон»)
Language : Russian
Default : Yes
Forced : No
Перевод и озвучивание осуществлено в рамках сервиса "Озвучивание". Спонсоры: Menkaura, tambov68, levanevski, borisol55, SemenS, benjjjamin, catismad, stanislav222, a_plus_q, ygorgor, eholin, baranovna, Badimo, wildhealer, IL, Кириллка, Shd_81, RAUL, Moritz, mentat, sns59, Nowikoff.

ПРИЯТНОГО ПРОСМОТРА!



   Похожие торренты   Торрент   Размер 
В этой теме нет новых непрочитанных сообщений. Виски: Версия Айлы + Бонус / Whisky: The Islay Edition (2011) BDRip 720p

10 | 2

2.3 ГБ

В этой теме нет новых непрочитанных сообщений. Виски: Версия Айлы + Бонус / Whisky: The Islay Edition (2011) HDRip

16 | 3

1.24 ГБ

В этой теме нет новых непрочитанных сообщений. Виски: Версия Айлы + Бонус / Whisky: The Islay Edition (2011) Blu-Ray-Remux (1080p) от HDClub

1 | 3

10.18 ГБ

В этой теме нет новых непрочитанных сообщений. Виски. Версия Айлы / Whisky: The Islay Edition (2011) BDRip-AVC | P1 | Омикрон

1 | 2

1.53 ГБ

В этой теме нет новых непрочитанных сообщений. Виски с водкой / Whisky mit Wodka (2009) DVDRip

1 | 10

1.45 ГБ

В этой теме нет новых непрочитанных сообщений. Виски и водка / Whisky mit Wodka (2009) DVDRip | Лицензия

3 | 4

1.37 ГБ

В этой теме нет новых непрочитанных сообщений. Виски с водкой / Whisky mit Wodka (2009) DVDRip | Лицензия

1 | 1

746.02 МБ




Вы не можете начинать темы
Вы не можете отвечать на сообщения
Вы не можете редактировать свои сообщения
Вы не можете удалять свои сообщения
Вы не можете добавлять вложения

Перейти:  
Для Мосгорсуда, Роскомнадзора и рекламодателей: mosgorsud-torrent[собачка]yandex.ru
 Вход
ppkBB3cker v.2 © 2008-2014 @ PPK
[ Time : 0.029s | 16 Queries | GZIP : Off ]

Торрент трекер RUTOR.IN, Не можете зайти на rutor.org? Какой новый адрес рутор? Какое зеркало рутор? Не работает rutor.org и зеркала? Тогда наш торрент специально для вас. Rutor.in неофициальное зеркало rutor. В случае если у Вас заблокирован rutor или вдруг Вы не можете на него зайти, то Вы без труда сможете скачать бесплатно и без рекламы последние новинки кино, игр, сериалов и прочего у нас, на Rutor.in. Не нужно использовать прокси, чтобы зайти на рутор, достаточно воспользоваться нашим ресурсом. Все новые фильмы, игры, сериалы, книги и музыка за 2013 и 2014 годы через торрент бесплатно. Скачивайте фильмы в хорошем качестве, игры для пк, xbox, playstation без регистрации. У нас вы найдете новые Зарубежные сериалы и Русские сериалы 2013, 2014, 2015 годов. Оставайтесь с нами, качайте любимые фильмы, игры, сериалы, книги и музыку.