img image001 image001 image001 image001 image001 image001 image001 image001 image001 image001 image001 image001 image001 image001 image001

Planets Sun Sun Sun
Статистика раздачи
Автор: Снежана | Размер: 28.31 ГБ | Добавлен: 25 июл 2013
Раздают: 8    Качают: 4
Скачать торрент
Скачать торрент
Описание торрента

СообщениеДобавлено: 25 июл 2013 

[imgright]http://i53.fastpic.ru/big/2013/0126/07/924fd9930506aa93541c3ef1c6453f07.jpg[/imgright][b]Название[/b]: Вторая мировая в HD цвете
[b]Оригинальное название[/b]:World War II In HD Colour
[b]Год выпуска[/b]: 2009
[b]Страна[/b]: Великобритания
[b]Студия[/b]: World Media Rights
[b]Жанр[/b]: Документальный, познавательный, военный, история, биография, кинохроника, исследование
[b]Продолжительность[/b]: 13 х ~ 00:51:00
[b]Перевод[/b]: Профессиональный одноголосый закадровый (Р. Антонович)
[b]Русские субтитры[/b]: нет

[url=http://www.kinopoisk.ru/film/652943/][img]http://www.kinopoisk.ru/rating/652943.gif[/img][/url]
[b]Описание[/b]: Сюжет фильма: Вошедший в документальный сериал материал может по праву считаться золотой коллекцией редчайших архивных съемок Второй мировой войны. Благодаря новейшим технологиям колоризации, события 1939-1945 годов предстанут на экране в цветном изображении. Воссоздать события тех лет также помогает сверхсовременная графика и технология радиолокационного картографирования земной поверхности. В документальный сериал вошли ранее секретные материалы, недавнее открытие доступа к которым сыграло решающую роль в заполнении многочисленных белых пятен в истории Второй мировой войны...

[spoiler="01. Гроза надвигается / The Gathering Storm"]Каким образом мировое соглашение, подписанное по окончании Первой мировой, привело к новому, еще более масштабному международному конфликту всего несколько лет спустя? Великая депрессия ослабила бдительность западно-европейских государств, в то время как в Германии, Италии, Японии и Испании стремительно набирали политический вес диктаторы-милитаристы...
[url=http://i023.radikal.ru/1303/29/280fa9427a99.png][img]http://i023.radikal.ru/1303/29/280fa9427a99t.jpg[/img][/url][url=http://s019.radikal.ru/i618/1303/4b/3a0fff0d2b19.png][img]http://s019.radikal.ru/i618/1303/4b/3a0fff0d2b19t.jpg[/img][/url][url=http://s55.radikal.ru/i147/1303/28/84c8d5e2edf1.png][img]http://s55.radikal.ru/i147/1303/28/84c8d5e2edf1t.jpg[/img][/url][url=http://s017.radikal.ru/i401/1303/21/2bb49c777ff7.png][img]http://s017.radikal.ru/i401/1303/21/2bb49c777ff7t.jpg[/img][/url][url=http://s018.radikal.ru/i528/1303/cd/fcc8f25fdd80.png][img]http://s018.radikal.ru/i528/1303/cd/fcc8f25fdd80t.jpg[/img][/url][url=http://s017.radikal.ru/i438/1303/7c/49bf4852f0d5.png][img]http://s017.radikal.ru/i438/1303/7c/49bf4852f0d5t.jpg[/img][/url]
[spoiler="MI"]General
Unique ID : 196710101535272537808897427669812023076 (0x93FCFCCC363301EAB08257F978008F24)
Complete name : C:UsersveebruarDesktopVtoraja mirovaja v HD cveteVtoraja mirovaja v HD cvete.1.Groza nadvigaetsja_BDRip 720[R.G.RealMT] by veebruar.mkv
Format : Matroska
Format version : Version 2
File size : 2.18 GiB
Duration : 51mn 15s
Overall bit rate : 6 082 Kbps
Encoded date : UTC 2013-03-20 04:16:59
Writing application : mkvmerge v5.8.0 ('No Sleep / Pillow') built on Sep 2 2012 15:37:04
Writing library : libebml v1.2.3 + libmatroska v1.3.0

Video
ID : 1
Format : AVC
Format/Info : Advanced Video Codec
Format profile : High@L4.1
Format settings, CABAC : Yes
Format settings, ReFrames : 7 frames
Codec ID : V_MPEG4/ISO/AVC
Duration : 51mn 15s
Bit rate : 5 888 Kbps
Width : 1 280 pixels
Height : 720 pixels
Display aspect ratio : 16:9
Frame rate mode : Constant
Frame rate : 25.000 fps
Color space : YUV
Chroma subsampling : 4:2:0
Bit depth : 8 bits
Scan type : Progressive
Bits/(Pixel*Frame) : 0.256
Stream size : 2.07 GiB (95%)
Writing library : x264 core 125 r2208 d9d2288
Encoding settings : cabac=1 / ref=7 / deblock=1:-2:-1 / analyse=0x3:0x133 / me=umh / subme=11 / psy=1 / psy_rd=1.00:0.00 / mixed_ref=1 / me_range=16 / chroma_me=1 / trellis=2 / 8x8dct=1 / cqm=0 / deadzone=21,11 / fast_pskip=1 / chroma_qp_offset=-2 / threads=6 / lookahead_threads=1 / sliced_threads=0 / nr=0 / decimate=1 / interlaced=0 / bluray_compat=0 / constrained_intra=0 / bframes=7 / b_pyramid=2 / b_adapt=2 / b_bias=0 / direct=3 / weightb=1 / open_gop=0 / weightp=2 / keyint=250 / keyint_min=25 / scenecut=40 / intra_refresh=0 / rc_lookahead=60 / rc=2pass / mbtree=1 / bitrate=5888 / ratetol=1.0 / qcomp=0.60 / qpmin=0 / qpmax=69 / qpstep=4 / cplxblur=20.0 / qblur=0.5 / ip_ratio=1.40 / aq=1:1.00
Default : Yes
Forced : No

Audio
ID : 2
Format : AC-3
Format/Info : Audio Coding 3
Mode extension : CM (complete main)
Format settings, Endianness : Big
Codec ID : A_AC3
Duration : 51mn 15s
Bit rate mode : Constant
Bit rate : 192 Kbps
Channel(s) : 2 channels
Channel positions : Front: L R
Sampling rate : 48.0 KHz
Bit depth : 16 bits
Compression mode : Lossy
Stream size : 70.4 MiB (3%)
Title : VO
Language : Russian
Default : Yes
Forced : No[/spoiler]
[/spoiler]
[spoiler="02. Разжигание войны / Lightning War"]Разработанная нацистами новая военная стратегия молниеносной войны «Блицкриг» застала врасплох Польшу, Великобританию и Францию. Гитлер захватил Францию всего за две недели, добившись тем самым того, что не удавалось Германии на протяжении четырех лет Первой мировой войны.
[url=http://s017.radikal.ru/i432/1303/dd/4bc2e9348496.png][img]http://s017.radikal.ru/i432/1303/dd/4bc2e9348496t.jpg[/img][/url][url=http://i062.radikal.ru/1303/e1/1cb5967d68ec.png][img]http://i062.radikal.ru/1303/e1/1cb5967d68ect.jpg[/img][/url][url=http://s020.radikal.ru/i708/1303/72/b584fb9beaec.png][img]http://s020.radikal.ru/i708/1303/72/b584fb9beaect.jpg[/img][/url][url=http://s017.radikal.ru/i418/1303/0a/bc9cf5ebf47d.png][img]http://s017.radikal.ru/i418/1303/0a/bc9cf5ebf47dt.jpg[/img][/url][url=http://s017.radikal.ru/i408/1303/41/facc2eeb1184.png][img]http://s017.radikal.ru/i408/1303/41/facc2eeb1184t.jpg[/img][/url][url=http://s020.radikal.ru/i705/1303/91/85814dca214c.png][img]http://s020.radikal.ru/i705/1303/91/85814dca214ct.jpg[/img][/url]
[spoiler="MI"]General
Unique ID : 201788023981641728384321087320224707816 (0x97CEF5B42CB77180A3E4FA2C85E034E8)
Complete name : C:UsersveebruarDesktopVtoraja mirovaja v HD cveteVtoraja mirovaja v HD cvete.2.Razzhiganie vojny_BDRip 720[R.G.RealMT] by veebruar.mkv
Format : Matroska
Format version : Version 2
File size : 2.18 GiB
Duration : 51mn 17s
Overall bit rate : 6 077 Kbps
Encoded date : UTC 2013-03-20 15:16:56
Writing application : mkvmerge v5.8.0 ('No Sleep / Pillow') built on Sep 2 2012 15:37:04
Writing library : libebml v1.2.3 + libmatroska v1.3.0

Video
ID : 1
Format : AVC
Format/Info : Advanced Video Codec
Format profile : High@L4.1
Format settings, CABAC : Yes
Format settings, ReFrames : 7 frames
Codec ID : V_MPEG4/ISO/AVC
Duration : 51mn 17s
Bit rate : 5 885 Kbps
Width : 1 280 pixels
Height : 720 pixels
Display aspect ratio : 16:9
Frame rate mode : Constant
Frame rate : 25.000 fps
Color space : YUV
Chroma subsampling : 4:2:0
Bit depth : 8 bits
Scan type : Progressive
Bits/(Pixel*Frame) : 0.255
Stream size : 2.07 GiB (95%)
Writing library : x264 core 125 r2208 d9d2288
Encoding settings : cabac=1 / ref=7 / deblock=1:-2:-1 / analyse=0x3:0x133 / me=umh / subme=11 / psy=1 / psy_rd=1.00:0.00 / mixed_ref=1 / me_range=16 / chroma_me=1 / trellis=2 / 8x8dct=1 / cqm=0 / deadzone=21,11 / fast_pskip=1 / chroma_qp_offset=-2 / threads=6 / lookahead_threads=1 / sliced_threads=0 / nr=0 / decimate=1 / interlaced=0 / bluray_compat=0 / constrained_intra=0 / bframes=7 / b_pyramid=2 / b_adapt=2 / b_bias=0 / direct=3 / weightb=1 / open_gop=0 / weightp=2 / keyint=250 / keyint_min=25 / scenecut=40 / intra_refresh=0 / rc_lookahead=60 / rc=2pass / mbtree=1 / bitrate=5885 / ratetol=1.0 / qcomp=0.60 / qpmin=0 / qpmax=69 / qpstep=4 / cplxblur=20.0 / qblur=0.5 / ip_ratio=1.40 / aq=1:1.00
Default : Yes
Forced : No

Audio
ID : 2
Format : AC-3
Format/Info : Audio Coding 3
Mode extension : CM (complete main)
Format settings, Endianness : Big
Codec ID : A_AC3
Duration : 51mn 17s
Bit rate mode : Constant
Bit rate : 192 Kbps
Channel(s) : 2 channels
Channel positions : Front: L R
Sampling rate : 48.0 KHz
Bit depth : 16 bits
Compression mode : Lossy
Stream size : 70.4 MiB (3%)
Title : VO
Language : Russian
Default : Yes
Forced : No
[/spoiler]
[/spoiler]
[spoiler="03. Наступление на Великобританию / Britain at Bay"]В июле 1940 года Гитлер обратил свой взор на Великобританию. Он был уверен, что со дня на день англичане попросят мирных переговоров. Страна действительно находилась на грани поражения; ее военно-воздушные силы были измождены атаками немецкого Люфтваффе. Но тактические ошибки, допущенные командующим Люфтваффе Германом Герингом, дали англичанам шанс перегруппироваться. С помощью выдающихся дешифровальщиков и специально обученных шпионов, а также при поддержке отрядов сопротивления на оккупированных территориях, Великобритания начала контратаку.
[url=http://s42.radikal.ru/i098/1303/75/d78c67767f9c.png][img]http://s42.radikal.ru/i098/1303/75/d78c67767f9ct.jpg[/img][/url][url=http://s019.radikal.ru/i610/1303/eb/f9d73ba99f2b.png][img]http://s019.radikal.ru/i610/1303/eb/f9d73ba99f2bt.jpg[/img][/url][url=http://i036.radikal.ru/1303/45/b9b4ec239fa0.png][img]http://i036.radikal.ru/1303/45/b9b4ec239fa0t.jpg[/img][/url][url=http://s019.radikal.ru/i636/1303/2d/717a4fec0262.png][img]http://s019.radikal.ru/i636/1303/2d/717a4fec0262t.jpg[/img][/url][url=http://s017.radikal.ru/i419/1303/69/bf91e34f537f.png][img]http://s017.radikal.ru/i419/1303/69/bf91e34f537ft.jpg[/img][/url][url=http://s004.radikal.ru/i205/1303/08/6dc0e3503505.png][img]http://s004.radikal.ru/i205/1303/08/6dc0e3503505t.jpg[/img][/url]
[spoiler="MI"]General
Unique ID : 199272858180108299184165728009934134280 (0x95EA8E74A3969835B95572381A34DC08)
Complete name : C:UsersveebruarDesktopVtoraja mirovaja v HD cveteVtoraja mirovaja v HD cvete.3.Nastuplenie na Velikobritaniju_BDRip 720[R.G.RealMT] by veebruar.mkv
Format : Matroska
Format version : Version 2
File size : 2.18 GiB
Duration : 51mn 17s
Overall bit rate : 6 077 Kbps
Encoded date : UTC 2013-03-20 20:41:19
Writing application : mkvmerge v5.8.0 ('No Sleep / Pillow') built on Sep 2 2012 15:37:04
Writing library : libebml v1.2.3 + libmatroska v1.3.0

Video
ID : 1
Format : AVC
Format/Info : Advanced Video Codec
Format profile : High@L4.1
Format settings, CABAC : Yes
Format settings, ReFrames : 7 frames
Codec ID : V_MPEG4/ISO/AVC
Duration : 51mn 17s
Bit rate : 5 885 Kbps
Width : 1 280 pixels
Height : 720 pixels
Display aspect ratio : 16:9
Frame rate mode : Constant
Frame rate : 25.000 fps
Color space : YUV
Chroma subsampling : 4:2:0
Bit depth : 8 bits
Scan type : Progressive
Bits/(Pixel*Frame) : 0.255
Stream size : 2.07 GiB (95%)
Writing library : x264 core 125 r2208 d9d2288
Encoding settings : cabac=1 / ref=7 / deblock=1:-2:-1 / analyse=0x3:0x133 / me=umh / subme=11 / psy=1 / psy_rd=1.00:0.00 / mixed_ref=1 / me_range=16 / chroma_me=1 / trellis=2 / 8x8dct=1 / cqm=0 / deadzone=21,11 / fast_pskip=1 / chroma_qp_offset=-2 / threads=6 / lookahead_threads=1 / sliced_threads=0 / nr=0 / decimate=1 / interlaced=0 / bluray_compat=0 / constrained_intra=0 / bframes=7 / b_pyramid=2 / b_adapt=2 / b_bias=0 / direct=3 / weightb=1 / open_gop=0 / weightp=2 / keyint=250 / keyint_min=25 / scenecut=40 / intra_refresh=0 / rc_lookahead=60 / rc=2pass / mbtree=1 / bitrate=5885 / ratetol=1.0 / qcomp=0.60 / qpmin=0 / qpmax=69 / qpstep=4 / cplxblur=20.0 / qblur=0.5 / ip_ratio=1.40 / aq=1:1.00
Default : Yes
Forced : No

Audio
ID : 2
Format : AC-3
Format/Info : Audio Coding 3
Mode extension : CM (complete main)
Format settings, Endianness : Big
Codec ID : A_AC3
Duration : 51mn 17s
Bit rate mode : Constant
Bit rate : 192 Kbps
Channel(s) : 2 channels
Channel positions : Front: L R
Sampling rate : 48.0 KHz
Bit depth : 16 bits
Compression mode : Lossy
Stream size : 70.4 MiB (3%)
Title : VO
Language : Russian
Default : Yes
Forced : No
[/spoiler]
[/spoiler]
[spoiler="04. Нападение на Восточную Европу / Hitler Strikes East"]Намерение Гитлера вторгнуться в СССР сначала повергло нацистских военноначальников в ужас. Советский союз был государством необъятных размеров и колоссальных ресурсов. Гитлер рассчитывал добиться успеха за счет неожиданности нападения и «молниеносной войны». Он прекрасно понимал, что если боевые действия затянутся, Германии наверняка грозит поражение…
[url=http://s017.radikal.ru/i420/1303/c4/729c35583046.png][img]http://s017.radikal.ru/i420/1303/c4/729c35583046t.jpg[/img][/url][url=http://s61.radikal.ru/i174/1303/ed/8a44afa85f25.png][img]http://s61.radikal.ru/i174/1303/ed/8a44afa85f25t.jpg[/img][/url][url=http://s019.radikal.ru/i637/1303/7f/6925079c6995.png][img]http://s019.radikal.ru/i637/1303/7f/6925079c6995t.jpg[/img][/url][url=http://s018.radikal.ru/i512/1303/0c/0c781cf6bde8.png][img]http://s018.radikal.ru/i512/1303/0c/0c781cf6bde8t.jpg[/img][/url][url=http://s019.radikal.ru/i603/1303/55/f6e73f8ed7b2.png][img]http://s019.radikal.ru/i603/1303/55/f6e73f8ed7b2t.jpg[/img][/url][url=http://s019.radikal.ru/i601/1303/55/3a983188b5f3.png][img]http://s019.radikal.ru/i601/1303/55/3a983188b5f3t.jpg[/img][/url]
[spoiler="MI"]General
Unique ID : 175536734790195384722058194180028758434 (0x840F253819202EA697D302417FA3F9A2)
Complete name : C:UsersveebruarDesktopVtoraja mirovaja v HD cveteVtoraja mirovaja v HD cvete.4.Napadenie na Vostochnuju Evropu_BDRip 720[R.G.RealMT] by veebruar.mkv
Format : Matroska
Format version : Version 2
File size : 2.18 GiB
Duration : 51mn 16s
Overall bit rate : 6 081 Kbps
Encoded date : UTC 2013-03-21 04:00:14
Writing application : mkvmerge v5.8.0 ('No Sleep / Pillow') built on Sep 2 2012 15:37:04
Writing library : libebml v1.2.3 + libmatroska v1.3.0

Video
ID : 1
Format : AVC
Format/Info : Advanced Video Codec
Format profile : High@L4.1
Format settings, CABAC : Yes
Format settings, ReFrames : 7 frames
Codec ID : V_MPEG4/ISO/AVC
Duration : 51mn 16s
Bit rate : 5 886 Kbps
Width : 1 280 pixels
Height : 720 pixels
Display aspect ratio : 16:9
Frame rate mode : Constant
Frame rate : 25.000 fps
Color space : YUV
Chroma subsampling : 4:2:0
Bit depth : 8 bits
Scan type : Progressive
Bits/(Pixel*Frame) : 0.255
Stream size : 2.07 GiB (95%)
Writing library : x264 core 125 r2208 d9d2288
Encoding settings : cabac=1 / ref=7 / deblock=1:-2:-1 / analyse=0x3:0x133 / me=umh / subme=11 / psy=1 / psy_rd=1.00:0.00 / mixed_ref=1 / me_range=16 / chroma_me=1 / trellis=2 / 8x8dct=1 / cqm=0 / deadzone=21,11 / fast_pskip=1 / chroma_qp_offset=-2 / threads=6 / lookahead_threads=1 / sliced_threads=0 / nr=0 / decimate=1 / interlaced=0 / bluray_compat=0 / constrained_intra=0 / bframes=7 / b_pyramid=2 / b_adapt=2 / b_bias=0 / direct=3 / weightb=1 / open_gop=0 / weightp=2 / keyint=250 / keyint_min=25 / scenecut=40 / intra_refresh=0 / rc_lookahead=60 / rc=2pass / mbtree=1 / bitrate=5886 / ratetol=1.0 / qcomp=0.60 / qpmin=0 / qpmax=69 / qpstep=4 / cplxblur=20.0 / qblur=0.5 / ip_ratio=1.40 / aq=1:1.00
Default : Yes
Forced : No

Audio
ID : 2
Format : AC-3
Format/Info : Audio Coding 3
Mode extension : CM (complete main)
Format settings, Endianness : Big
Codec ID : A_AC3
Duration : 51mn 16s
Bit rate mode : Constant
Bit rate : 192 Kbps
Channel(s) : 2 channels
Channel positions : Front: L R
Sampling rate : 48.0 KHz
Bit depth : 16 bits
Compression mode : Lossy
Stream size : 70.4 MiB (3%)
Title : VO
Language : Russian
Default : Yes
Forced : No
[/spoiler]
[/spoiler]
[spoiler="05. Испепеляющее солнце Японии / Red Sun Rampant"]7 декабря 1941 года Япония атаковала Перл-Харбор и вступила во Вторую мировую войну. Вскоре она разгромила многочисленную британскую армию в Сингапуре и оставалась грозой Тихого океана до тех пор, пока в войну не вступили Соединенные штаты. С этого момента война приобрела инновационный характер. Так, линкор был отправлен на заслуженный отдых, а на смену ему пришел авианосец.
[url=http://i060.radikal.ru/1303/6f/dc0cea55b8d7.png][img]http://i060.radikal.ru/1303/6f/dc0cea55b8d7t.jpg[/img][/url][url=http://s019.radikal.ru/i631/1303/82/fb1cd4c996a4.png][img]http://s019.radikal.ru/i631/1303/82/fb1cd4c996a4t.jpg[/img][/url][url=http://s003.radikal.ru/i203/1303/f3/5a24f3aca0c3.png][img]http://s003.radikal.ru/i203/1303/f3/5a24f3aca0c3t.jpg[/img][/url][url=http://s019.radikal.ru/i626/1303/76/31efa7b9caf2.png][img]http://s019.radikal.ru/i626/1303/76/31efa7b9caf2t.jpg[/img][/url][url=http://s017.radikal.ru/i425/1303/4b/765cf8b602b3.png][img]http://s017.radikal.ru/i425/1303/4b/765cf8b602b3t.jpg[/img][/url][url=http://s005.radikal.ru/i212/1303/72/92330cea3326.png][img]http://s005.radikal.ru/i212/1303/72/92330cea3326t.jpg[/img][/url]
[spoiler="MI"]General
Unique ID : 221975431021930569615208390492594007961 (0xA6FEE9B73E9ADED897EC15F9227E6F99)
Complete name : C:UsersveebruarDesktopVtoraja mirovaja v HD cveteVtoraja mirovaja v HD cvete.5.Ispepeljajushhee solnce Japonii_BDRip 720[R.G.RealMT] by veebruar.mkv
Format : Matroska
Format version : Version 2
File size : 2.18 GiB
Duration : 51mn 17s
Overall bit rate : 6 080 Kbps
Encoded date : UTC 2013-03-21 09:14:23
Writing application : mkvmerge v5.8.0 ('No Sleep / Pillow') built on Sep 2 2012 15:37:04
Writing library : libebml v1.2.3 + libmatroska v1.3.0

Video
ID : 1
Format : AVC
Format/Info : Advanced Video Codec
Format profile : High@L4.1
Format settings, CABAC : Yes
Format settings, ReFrames : 7 frames
Codec ID : V_MPEG4/ISO/AVC
Duration : 51mn 17s
Bit rate : 5 885 Kbps
Width : 1 280 pixels
Height : 720 pixels
Display aspect ratio : 16:9
Frame rate mode : Constant
Frame rate : 25.000 fps
Color space : YUV
Chroma subsampling : 4:2:0
Bit depth : 8 bits
Scan type : Progressive
Bits/(Pixel*Frame) : 0.255
Stream size : 2.07 GiB (95%)
Writing library : x264 core 125 r2208 d9d2288
Encoding settings : cabac=1 / ref=7 / deblock=1:-2:-1 / analyse=0x3:0x133 / me=umh / subme=11 / psy=1 / psy_rd=1.00:0.00 / mixed_ref=1 / me_range=16 / chroma_me=1 / trellis=2 / 8x8dct=1 / cqm=0 / deadzone=21,11 / fast_pskip=1 / chroma_qp_offset=-2 / threads=6 / lookahead_threads=1 / sliced_threads=0 / nr=0 / decimate=1 / interlaced=0 / bluray_compat=0 / constrained_intra=0 / bframes=7 / b_pyramid=2 / b_adapt=2 / b_bias=0 / direct=3 / weightb=1 / open_gop=0 / weightp=2 / keyint=250 / keyint_min=25 / scenecut=40 / intra_refresh=0 / rc_lookahead=60 / rc=2pass / mbtree=1 / bitrate=5885 / ratetol=1.0 / qcomp=0.60 / qpmin=0 / qpmax=69 / qpstep=4 / cplxblur=20.0 / qblur=0.5 / ip_ratio=1.40 / aq=1:1.00
Default : Yes
Forced : No

Audio
ID : 2
Format : AC-3
Format/Info : Audio Coding 3
Mode extension : CM (complete main)
Format settings, Endianness : Big
Codec ID : A_AC3
Duration : 51mn 17s
Bit rate mode : Constant
Bit rate : 192 Kbps
Channel(s) : 2 channels
Channel positions : Front: L R
Sampling rate : 48.0 KHz
Bit depth : 16 bits
Compression mode : Lossy
Stream size : 70.4 MiB (3%)
Title : VO
Language : Russian
Default : Yes
Forced : No
[/spoiler]
[/spoiler]
[spoiler="06. Средиземноморье и Северная Африка / The Mediterranean and North Africa"]Муссолини всегда мечтал воссоздать великую римскую империю. Но военный стратег он был никакой. После неудавшихся наступлений в Северной Африке и Греции, его армия пустилась в бегство. Перед Гитлером встал вопрос: либо разворачивать свои войска и отправлять их в поддержку союзнику, либо бросить Муссолини на произвол судьбы. Гитлер решил протянуть ему руку помощи, что вскоре обернулось катастрофой для обоих диктаторов: Гитлер потерял сотни тысяч солдат, а Муссолини - свою жизнь.
[url=http://s004.radikal.ru/i207/1303/d6/e0bef2783740.png][img]http://s004.radikal.ru/i207/1303/d6/e0bef2783740t.jpg[/img][/url][url=http://s019.radikal.ru/i623/1303/b7/0cdceb168585.png][img]http://s019.radikal.ru/i623/1303/b7/0cdceb168585t.jpg[/img][/url][url=http://s61.radikal.ru/i173/1303/67/1659ce62a3d6.png][img]http://s61.radikal.ru/i173/1303/67/1659ce62a3d6t.jpg[/img][/url][url=http://s017.radikal.ru/i442/1303/81/fa23d505ca32.png][img]http://s017.radikal.ru/i442/1303/81/fa23d505ca32t.jpg[/img][/url][url=http://s017.radikal.ru/i425/1303/bd/63d6117bc3df.png][img]http://s017.radikal.ru/i425/1303/bd/63d6117bc3dft.jpg[/img][/url][url=http://s018.radikal.ru/i504/1303/ff/feaaa7bf4deb.png][img]http://s018.radikal.ru/i504/1303/ff/feaaa7bf4debt.jpg[/img][/url]
[spoiler="MI"]General
Unique ID : 227431985527795509362198640515420754609 (0xAB19CE9FACB936EF8F6EB1A03A2F92B1)
Complete name : C:UsersveebruarDesktopVtoraja mirovaja v HD cveteVtoraja mirovaja v HD cvete.6.Sredizemnomor'e i Severnaja Afrika_BDRip 720[R.G.RealMT] by veebruar.mkv
Format : Matroska
Format version : Version 2
File size : 2.18 GiB
Duration : 51mn 17s
Overall bit rate : 6 078 Kbps
Encoded date : UTC 2013-03-21 14:32:06
Writing application : mkvmerge v5.8.0 ('No Sleep / Pillow') built on Sep 2 2012 15:37:04
Writing library : libebml v1.2.3 + libmatroska v1.3.0

Video
ID : 1
Format : AVC
Format/Info : Advanced Video Codec
Format profile : High@L4.1
Format settings, CABAC : Yes
Format settings, ReFrames : 7 frames
Codec ID : V_MPEG4/ISO/AVC
Duration : 51mn 17s
Bit rate : 5 885 Kbps
Width : 1 280 pixels
Height : 720 pixels
Display aspect ratio : 16:9
Frame rate mode : Constant
Frame rate : 25.000 fps
Color space : YUV
Chroma subsampling : 4:2:0
Bit depth : 8 bits
Scan type : Progressive
Bits/(Pixel*Frame) : 0.255
Stream size : 2.07 GiB (95%)
Writing library : x264 core 125 r2208 d9d2288
Encoding settings : cabac=1 / ref=7 / deblock=1:-2:-1 / analyse=0x3:0x133 / me=umh / subme=11 / psy=1 / psy_rd=1.00:0.00 / mixed_ref=1 / me_range=16 / chroma_me=1 / trellis=2 / 8x8dct=1 / cqm=0 / deadzone=21,11 / fast_pskip=1 / chroma_qp_offset=-2 / threads=6 / lookahead_threads=1 / sliced_threads=0 / nr=0 / decimate=1 / interlaced=0 / bluray_compat=0 / constrained_intra=0 / bframes=7 / b_pyramid=2 / b_adapt=2 / b_bias=0 / direct=3 / weightb=1 / open_gop=0 / weightp=2 / keyint=250 / keyint_min=25 / scenecut=40 / intra_refresh=0 / rc_lookahead=60 / rc=2pass / mbtree=1 / bitrate=5885 / ratetol=1.0 / qcomp=0.60 / qpmin=0 / qpmax=69 / qpstep=4 / cplxblur=20.0 / qblur=0.5 / ip_ratio=1.40 / aq=1:1.00
Default : Yes
Forced : No

Audio
ID : 2
Format : AC-3
Format/Info : Audio Coding 3
Mode extension : CM (complete main)
Format settings, Endianness : Big
Codec ID : A_AC3
Duration : 51mn 17s
Bit rate mode : Constant
Bit rate : 192 Kbps
Channel(s) : 2 channels
Channel positions : Front: L R
Sampling rate : 48.0 KHz
Bit depth : 16 bits
Compression mode : Lossy
Stream size : 70.4 MiB (3%)
Title : VO
Language : Russian
Default : Yes
Forced : No
[/spoiler]
[/spoiler]
[spoiler="07. Перелом / Turning the Tide"]Как нацисты, так и участники антигитлеровской коалиции стремились нанести противнику решающий удар и положить конец войне. Британский маршал авиации сэр Артур Харрис полагал, что залог победы над врагом - стратегическая бомбардировка. Идея заключалась в том, чтобы сравнять с землей немецкие города и инфраструктуру. По его мнению, это должно было подорвать как боевой дух, так и боевые ресурсы Германии. Однако блестящий план обернулся трагедией Дрездена, когда от бомбардировок союзников пострадали десятки тысяч мирных жителей.
[url=http://s006.radikal.ru/i213/1303/9e/7f42f4071436.png][img]http://s006.radikal.ru/i213/1303/9e/7f42f4071436t.jpg[/img][/url][url=http://s019.radikal.ru/i616/1303/8c/3c12704c923e.png][img]http://s019.radikal.ru/i616/1303/8c/3c12704c923et.jpg[/img][/url][url=http://s56.radikal.ru/i152/1303/ad/38eef2718206.png][img]http://s56.radikal.ru/i152/1303/ad/38eef2718206t.jpg[/img][/url][url=http://s61.radikal.ru/i172/1303/db/21645073a105.png][img]http://s61.radikal.ru/i172/1303/db/21645073a105t.jpg[/img][/url][url=http://s003.radikal.ru/i203/1303/a5/2a1ebf30d632.png][img]http://s003.radikal.ru/i203/1303/a5/2a1ebf30d632t.jpg[/img][/url][url=http://s49.radikal.ru/i125/1303/69/a4ff7dfdac5b.png][img]http://s49.radikal.ru/i125/1303/69/a4ff7dfdac5bt.jpg[/img][/url]
[spoiler="MI"]General
Unique ID : 224938901514051981484760502285833543706 (0xA939A8177C16AEADA03E936B6D2B201A)
Complete name : C:UsersveebruarDesktopVtoraja mirovaja v HD cveteVtoraja mirovaja v HD cvete.7.Perelom_BDRip 720[R.G.RealMT] by veebruar.mkv
Format : Matroska
Format version : Version 2
File size : 2.18 GiB
Duration : 51mn 16s
Overall bit rate : 6 079 Kbps
Encoded date : UTC 2013-03-21 20:06:59
Writing application : mkvmerge v5.8.0 ('No Sleep / Pillow') built on Sep 2 2012 15:37:04
Writing library : libebml v1.2.3 + libmatroska v1.3.0

Video
ID : 1
Format : AVC
Format/Info : Advanced Video Codec
Format profile : High@L4.1
Format settings, CABAC : Yes
Format settings, ReFrames : 7 frames
Codec ID : V_MPEG4/ISO/AVC
Duration : 51mn 16s
Bit rate : 5 885 Kbps
Width : 1 280 pixels
Height : 720 pixels
Display aspect ratio : 16:9
Frame rate mode : Constant
Frame rate : 25.000 fps
Color space : YUV
Chroma subsampling : 4:2:0
Bit depth : 8 bits
Scan type : Progressive
Bits/(Pixel*Frame) : 0.255
Stream size : 2.07 GiB (95%)
Writing library : x264 core 125 r2208 d9d2288
Encoding settings : cabac=1 / ref=7 / deblock=1:-2:-1 / analyse=0x3:0x133 / me=umh / subme=11 / psy=1 / psy_rd=1.00:0.00 / mixed_ref=1 / me_range=16 / chroma_me=1 / trellis=2 / 8x8dct=1 / cqm=0 / deadzone=21,11 / fast_pskip=1 / chroma_qp_offset=-2 / threads=6 / lookahead_threads=1 / sliced_threads=0 / nr=0 / decimate=1 / interlaced=0 / bluray_compat=0 / constrained_intra=0 / bframes=7 / b_pyramid=2 / b_adapt=2 / b_bias=0 / direct=3 / weightb=1 / open_gop=0 / weightp=2 / keyint=250 / keyint_min=25 / scenecut=40 / intra_refresh=0 / rc_lookahead=60 / rc=2pass / mbtree=1 / bitrate=5885 / ratetol=1.0 / qcomp=0.60 / qpmin=0 / qpmax=69 / qpstep=4 / cplxblur=20.0 / qblur=0.5 / ip_ratio=1.40 / aq=1:1.00
Default : Yes
Forced : No

Audio
ID : 2
Format : AC-3
Format/Info : Audio Coding 3
Mode extension : CM (complete main)
Format settings, Endianness : Big
Codec ID : A_AC3
Duration : 51mn 16s
Bit rate mode : Constant
Bit rate : 192 Kbps
Channel(s) : 2 channels
Channel positions : Front: L R
Sampling rate : 48.0 KHz
Bit depth : 16 bits
Compression mode : Lossy
Stream size : 70.4 MiB (3%)
Title : VO
Language : Russian
Default : Yes
Forced : No
[/spoiler]
[/spoiler]
[spoiler="08. Советский каток / The Soviet Steamroller"]К июлю 1943 года стал полностью ясен полный провал авантюры Гитлера на Востоке. После нокаутирующего удара в Сталинграде и под Москвой, его армия была отдана на милость огромной советской военной машины. Имея огромные ресурсы, и, казалось безграничное количество людей, Красная Армия медленно выдавливала немцев из России через Украину, Польшу, Балканы и Венгрию. Это была война чудовищных масштабов, миллионные армии бросались друг против друга. Но это было также война сражавшихся небольших групп партизан, людей, подобным Тито в Югославии, ведущих партизанские отряды против немецко-фашистских войск.
[url=http://s017.radikal.ru/i419/1303/fb/45d9d348b967.png][img]http://s017.radikal.ru/i419/1303/fb/45d9d348b967t.jpg[/img][/url][url=http://s48.radikal.ru/i120/1303/14/be7f1e708501.png][img]http://s48.radikal.ru/i120/1303/14/be7f1e708501t.jpg[/img][/url][url=http://s51.radikal.ru/i133/1303/55/1e7a05de3984.png][img]http://s51.radikal.ru/i133/1303/55/1e7a05de3984t.jpg[/img][/url][url=http://s55.radikal.ru/i147/1303/b0/6bf2c2a7a6bd.png][img]http://s55.radikal.ru/i147/1303/b0/6bf2c2a7a6bdt.jpg[/img][/url][url=http://s017.radikal.ru/i432/1303/91/3bfbe8c27b82.png][img]http://s017.radikal.ru/i432/1303/91/3bfbe8c27b82t.jpg[/img][/url][url=http://s019.radikal.ru/i602/1303/30/c86b78d2b34c.png][img]http://s019.radikal.ru/i602/1303/30/c86b78d2b34ct.jpg[/img][/url]
[spoiler="MI"]General
Unique ID : 204791920159375117212643897221586029490 (0x9A117D384D4EA57C8C8B31B8D96F0BB2)
Complete name : C:UsersveebruarDesktopVtoraja mirovaja v HD cveteVtoraja mirovaja v HD cvete.8.Sovetskoe nastuplenie_BDRip 720[R.G.RealMT] by veebruar.mkv
Format : Matroska
Format version : Version 2
File size : 2.18 GiB
Duration : 51mn 19s
Overall bit rate : 6 073 Kbps
Encoded date : UTC 2013-03-22 01:53:14
Writing application : mkvmerge v5.8.0 ('No Sleep / Pillow') built on Sep 2 2012 15:37:04
Writing library : libebml v1.2.3 + libmatroska v1.3.0

Video
ID : 1
Format : AVC
Format/Info : Advanced Video Codec
Format profile : High@L4.1
Format settings, CABAC : Yes
Format settings, ReFrames : 7 frames
Codec ID : V_MPEG4/ISO/AVC
Duration : 51mn 19s
Bit rate : 5 881 Kbps
Width : 1 280 pixels
Height : 720 pixels
Display aspect ratio : 16:9
Frame rate mode : Constant
Frame rate : 25.000 fps
Color space : YUV
Chroma subsampling : 4:2:0
Bit depth : 8 bits
Scan type : Progressive
Bits/(Pixel*Frame) : 0.255
Stream size : 2.07 GiB (95%)
Writing library : x264 core 125 r2208 d9d2288
Encoding settings : cabac=1 / ref=7 / deblock=1:-2:-1 / analyse=0x3:0x133 / me=umh / subme=11 / psy=1 / psy_rd=1.00:0.00 / mixed_ref=1 / me_range=16 / chroma_me=1 / trellis=2 / 8x8dct=1 / cqm=0 / deadzone=21,11 / fast_pskip=1 / chroma_qp_offset=-2 / threads=6 / lookahead_threads=1 / sliced_threads=0 / nr=0 / decimate=1 / interlaced=0 / bluray_compat=0 / constrained_intra=0 / bframes=7 / b_pyramid=2 / b_adapt=2 / b_bias=0 / direct=3 / weightb=1 / open_gop=0 / weightp=2 / keyint=250 / keyint_min=25 / scenecut=40 / intra_refresh=0 / rc_lookahead=60 / rc=2pass / mbtree=1 / bitrate=5881 / ratetol=1.0 / qcomp=0.60 / qpmin=0 / qpmax=69 / qpstep=4 / cplxblur=20.0 / qblur=0.5 / ip_ratio=1.40 / aq=1:1.00
Default : Yes
Forced : No

Audio
ID : 2
Format : AC-3
Format/Info : Audio Coding 3
Mode extension : CM (complete main)
Format settings, Endianness : Big
Codec ID : A_AC3
Duration : 51mn 19s
Bit rate mode : Constant
Bit rate : 192 Kbps
Channel(s) : 2 channels
Channel positions : Front: L R
Sampling rate : 48.0 KHz
Bit depth : 16 bits
Compression mode : Lossy
Stream size : 70.5 MiB (3%)
Title : VO
Language : Russian
Default : Yes
Forced : No
[/spoiler]
[/spoiler]
[spoiler="09. Высадка союзников в Нормандии / Overlord"]Сегодня можно подумать, что высадка союзных войск в Нормандии была заведомой легкой победой над уже практически побежденной фашистской Германией. Операция высадки в Нормандии была продумана с детальной точностью; для ее осуществления была даже разработана специальная техника. Если бы американцы не смогли удержаться на пляже Омаха, вся операция могла провалиться, и именно это чуть не произошло.
[url=http://i047.radikal.ru/1303/ed/e348668aef08.png][img]http://i047.radikal.ru/1303/ed/e348668aef08t.jpg[/img][/url][url=http://s018.radikal.ru/i502/1303/91/a41cdbd53c44.png][img]http://s018.radikal.ru/i502/1303/91/a41cdbd53c44t.jpg[/img][/url][url=http://s019.radikal.ru/i612/1303/a9/1b18411b4392.png][img]http://s019.radikal.ru/i612/1303/a9/1b18411b4392t.jpg[/img][/url][url=http://s019.radikal.ru/i628/1303/ba/312bf1a0e413.png][img]http://s019.radikal.ru/i628/1303/ba/312bf1a0e413t.jpg[/img][/url][url=http://s020.radikal.ru/i717/1303/f0/6d0b162da289.png][img]http://s020.radikal.ru/i717/1303/f0/6d0b162da289t.jpg[/img][/url][url=http://s41.radikal.ru/i094/1303/fa/e627c8243c9f.png][img]http://s41.radikal.ru/i094/1303/fa/e627c8243c9ft.jpg[/img][/url]
[spoiler="MI"]General
Unique ID : 240324843409930148465606797498937957979 (0xB4CCE1984FB079F89E393C6E49EEDE5B)
Complete name : C:UsersveebruarDesktopVtoraja mirovaja v HD cveteVtoraja mirovaja v HD cvete.9.Vysadka sojuznikov v Normandii_BDRip 720[R.G.RealMT] by veebruar.mkv
Format : Matroska
Format version : Version 2
File size : 2.18 GiB
Duration : 51mn 18s
Overall bit rate : 6 077 Kbps
Encoded date : UTC 2013-03-22 07:06:11
Writing application : mkvmerge v5.8.0 ('No Sleep / Pillow') built on Sep 2 2012 15:37:04
Writing library : libebml v1.2.3 + libmatroska v1.3.0

Video
ID : 1
Format : AVC
Format/Info : Advanced Video Codec
Format profile : High@L4.1
Format settings, CABAC : Yes
Format settings, ReFrames : 7 frames
Codec ID : V_MPEG4/ISO/AVC
Duration : 51mn 18s
Bit rate : 5 883 Kbps
Width : 1 280 pixels
Height : 720 pixels
Display aspect ratio : 16:9
Frame rate mode : Constant
Frame rate : 25.000 fps
Color space : YUV
Chroma subsampling : 4:2:0
Bit depth : 8 bits
Scan type : Progressive
Bits/(Pixel*Frame) : 0.255
Stream size : 2.07 GiB (95%)
Writing library : x264 core 125 r2208 d9d2288
Encoding settings : cabac=1 / ref=7 / deblock=1:-2:-1 / analyse=0x3:0x133 / me=umh / subme=11 / psy=1 / psy_rd=1.00:0.00 / mixed_ref=1 / me_range=16 / chroma_me=1 / trellis=2 / 8x8dct=1 / cqm=0 / deadzone=21,11 / fast_pskip=1 / chroma_qp_offset=-2 / threads=6 / lookahead_threads=1 / sliced_threads=0 / nr=0 / decimate=1 / interlaced=0 / bluray_compat=0 / constrained_intra=0 / bframes=7 / b_pyramid=2 / b_adapt=2 / b_bias=0 / direct=3 / weightb=1 / open_gop=0 / weightp=2 / keyint=250 / keyint_min=25 / scenecut=40 / intra_refresh=0 / rc_lookahead=60 / rc=2pass / mbtree=1 / bitrate=5883 / ratetol=1.0 / qcomp=0.60 / qpmin=0 / qpmax=69 / qpstep=4 / cplxblur=20.0 / qblur=0.5 / ip_ratio=1.40 / aq=1:1.00
Default : Yes
Forced : No

Audio
ID : 2
Format : AC-3
Format/Info : Audio Coding 3
Mode extension : CM (complete main)
Format settings, Endianness : Big
Codec ID : A_AC3
Duration : 51mn 18s
Bit rate mode : Constant
Bit rate : 192 Kbps
Channel(s) : 2 channels
Channel positions : Front: L R
Sampling rate : 48.0 KHz
Bit depth : 16 bits
Compression mode : Lossy
Stream size : 70.5 MiB (3%)
Title : VO
Language : Russian
Default : Yes
Forced : No
[/spoiler]
[/spoiler]
[spoiler="10. Кольцо смыкается / Closing the Ring"]В 1944 году кольцо вокруг Германии начало смыкаться – с востока наступала Советская армия, а с запада - силы США и Британии. Впереди были Арнемская и Варшавская трагедии, и освобождение лагерей смерти…[url=http://s018.radikal.ru/i523/1303/05/93a99194eb99.png][img]http://s018.radikal.ru/i523/1303/05/93a99194eb99t.jpg[/img][/url][url=http://s017.radikal.ru/i406/1303/e5/e38223593b21.png][img]http://s017.radikal.ru/i406/1303/e5/e38223593b21t.jpg[/img][/url][url=http://s005.radikal.ru/i210/1303/69/1ad17a4be3ce.png][img]http://s005.radikal.ru/i210/1303/69/1ad17a4be3cet.jpg[/img][/url][url=http://s019.radikal.ru/i641/1303/61/dc53716d9b9a.png][img]http://s019.radikal.ru/i641/1303/61/dc53716d9b9at.jpg[/img][/url][url=http://s018.radikal.ru/i524/1303/4d/61c45a0d471c.png][img]http://s018.radikal.ru/i524/1303/4d/61c45a0d471ct.jpg[/img][/url][url=http://i023.radikal.ru/1303/4a/6bb59fd56e1b.png][img]http://i023.radikal.ru/1303/4a/6bb59fd56e1bt.jpg[/img][/url]
[spoiler="MI"]General
Unique ID : 227763134269018630854206165488274277163 (0xAB599584682C51FD94FDA5FE34E0832B)
Complete name : C:UsersveebruarDesktopVtoraja mirovaja v HD cveteVtoraja mirovaja v HD cvete.10.Kol'co smykaetsja_BDRip 720[R.G.RealMT] by veebruar.mkv
Format : Matroska
Format version : Version 2
File size : 2.18 GiB
Duration : 51mn 18s
Overall bit rate : 6 075 Kbps
Encoded date : UTC 2013-03-20 09:49:05
Writing application : mkvmerge v5.8.0 ('No Sleep / Pillow') built on Sep 2 2012 15:37:04
Writing library : libebml v1.2.3 + libmatroska v1.3.0

Video
ID : 1
Format : AVC
Format/Info : Advanced Video Codec
Format profile : High@L4.1
Format settings, CABAC : Yes
Format settings, ReFrames : 7 frames
Codec ID : V_MPEG4/ISO/AVC
Duration : 51mn 18s
Bit rate : 5 883 Kbps
Width : 1 280 pixels
Height : 720 pixels
Display aspect ratio : 16:9
Frame rate mode : Constant
Frame rate : 25.000 fps
Color space : YUV
Chroma subsampling : 4:2:0
Bit depth : 8 bits
Scan type : Progressive
Bits/(Pixel*Frame) : 0.255
Stream size : 2.07 GiB (95%)
Writing library : x264 core 125 r2208 d9d2288
Encoding settings : cabac=1 / ref=7 / deblock=1:-2:-1 / analyse=0x3:0x133 / me=umh / subme=11 / psy=1 / psy_rd=1.00:0.00 / mixed_ref=1 / me_range=16 / chroma_me=1 / trellis=2 / 8x8dct=1 / cqm=0 / deadzone=21,11 / fast_pskip=1 / chroma_qp_offset=-2 / threads=6 / lookahead_threads=1 / sliced_threads=0 / nr=0 / decimate=1 / interlaced=0 / bluray_compat=0 / constrained_intra=0 / bframes=7 / b_pyramid=2 / b_adapt=2 / b_bias=0 / direct=3 / weightb=1 / open_gop=0 / weightp=2 / keyint=250 / keyint_min=25 / scenecut=40 / intra_refresh=0 / rc_lookahead=60 / rc=2pass / mbtree=1 / bitrate=5883 / ratetol=1.0 / qcomp=0.60 / qpmin=0 / qpmax=69 / qpstep=4 / cplxblur=20.0 / qblur=0.5 / ip_ratio=1.40 / aq=1:1.00
Default : Yes
Forced : No

Audio
ID : 2
Format : AC-3
Format/Info : Audio Coding 3
Mode extension : CM (complete main)
Format settings, Endianness : Big
Codec ID : A_AC3
Duration : 51mn 18s
Bit rate mode : Constant
Bit rate : 192 Kbps
Channel(s) : 2 channels
Channel positions : Front: L R
Sampling rate : 48.0 KHz
Bit depth : 16 bits
Compression mode : Lossy
Stream size : 70.5 MiB (3%)
Title : VO
Language : Russian
Default : Yes
Forced : No
[/spoiler]
[/spoiler]
[spoiler="11. Островная война / The Island War"]C декабря 1941 года в водах Тихого океана шли ожесточенные боевые действия против Японии. Только после победы у Марианских островов американцы уничтожили последний оплот японского тихоокеанского могущества. Кровопролитные бои велись и в джунглях, в том числе в Бирме, где, несмотря на ужасающие условия, союзники шаг за шагом отвоевывали занятые японцами территории.
[url=http://s45.radikal.ru/i108/1303/b9/43a2872f25ad.png][img]http://s45.radikal.ru/i108/1303/b9/43a2872f25adt.jpg[/img][/url][url=http://s017.radikal.ru/i412/1303/82/a83276480604.png][img]http://s017.radikal.ru/i412/1303/82/a83276480604t.jpg[/img][/url][url=http://s018.radikal.ru/i523/1303/f3/aabed802842b.png][img]http://s018.radikal.ru/i523/1303/f3/aabed802842bt.jpg[/img][/url][url=http://s003.radikal.ru/i202/1303/fd/87a74931e6e7.png][img]http://s003.radikal.ru/i202/1303/fd/87a74931e6e7t.jpg[/img][/url][url=http://s018.radikal.ru/i513/1303/7d/ce03f5947b8a.png][img]http://s018.radikal.ru/i513/1303/7d/ce03f5947b8at.jpg[/img][/url][url=http://s019.radikal.ru/i605/1303/f2/0eef5deba903.png][img]http://s019.radikal.ru/i605/1303/f2/0eef5deba903t.jpg[/img][/url]
[spoiler="MI"]General
Unique ID : 254145440585849576461255453757436336856 (0xBF32A1A517F2273D96CB84F9349C1AD8)
Complete name : C:UsersveebruarDesktopVtoraja mirovaja v HD cveteVtoraja mirovaja v HD cvete.11.Ostrovnaja vojna_BDRip 720[R.G.RealMT] by veebruar.mkv
Format : Matroska
Format version : Version 2
File size : 2.18 GiB
Duration : 51mn 18s
Overall bit rate : 6 078 Kbps
Encoded date : UTC 2013-03-22 13:20:07
Writing application : mkvmerge v5.8.0 ('No Sleep / Pillow') built on Sep 2 2012 15:37:04
Writing library : libebml v1.2.3 + libmatroska v1.3.0

Video
ID : 1
Format : AVC
Format/Info : Advanced Video Codec
Format profile : High@L4.1
Format settings, CABAC : Yes
Format settings, ReFrames : 7 frames
Codec ID : V_MPEG4/ISO/AVC
Duration : 51mn 18s
Bit rate : 5 883 Kbps
Width : 1 280 pixels
Height : 720 pixels
Display aspect ratio : 16:9
Frame rate mode : Constant
Frame rate : 25.000 fps
Color space : YUV
Chroma subsampling : 4:2:0
Bit depth : 8 bits
Scan type : Progressive
Bits/(Pixel*Frame) : 0.255
Stream size : 2.07 GiB (95%)
Writing library : x264 core 125 r2208 d9d2288
Encoding settings : cabac=1 / ref=7 / deblock=1:-2:-1 / analyse=0x3:0x133 / me=umh / subme=11 / psy=1 / psy_rd=1.00:0.00 / mixed_ref=1 / me_range=16 / chroma_me=1 / trellis=2 / 8x8dct=1 / cqm=0 / deadzone=21,11 / fast_pskip=1 / chroma_qp_offset=-2 / threads=6 / lookahead_threads=1 / sliced_threads=0 / nr=0 / decimate=1 / interlaced=0 / bluray_compat=0 / constrained_intra=0 / bframes=7 / b_pyramid=2 / b_adapt=2 / b_bias=0 / direct=3 / weightb=1 / open_gop=0 / weightp=2 / keyint=250 / keyint_min=25 / scenecut=40 / intra_refresh=0 / rc_lookahead=60 / rc=2pass / mbtree=1 / bitrate=5883 / ratetol=1.0 / qcomp=0.60 / qpmin=0 / qpmax=69 / qpstep=4 / cplxblur=20.0 / qblur=0.5 / ip_ratio=1.40 / aq=1:1.00
Default : Yes
Forced : No

Audio
ID : 2
Format : AC-3
Format/Info : Audio Coding 3
Mode extension : CM (complete main)
Format settings, Endianness : Big
Codec ID : A_AC3
Duration : 51mn 18s
Bit rate mode : Constant
Bit rate : 192 Kbps
Channel(s) : 2 channels
Channel positions : Front: L R
Sampling rate : 48.0 KHz
Bit depth : 16 bits
Compression mode : Lossy
Stream size : 70.5 MiB (3%)
Title : VO
Language : Russian
Default : Yes
Forced : No
[/spoiler]
[/spoiler]
[spoiler="12. Победа в Европе / Victory in Europe"]Шокирующими и отчаянными были месяцы войны в Европе. Документальные кадры покажут, как британцы и американцы форсируют Рейн, как русские продираются через Польшу в саму Германию. В этой серии показаны кадры освобождения Бельзена и Бухенвальда, а так же весь ужас последних боев на улицах Берлина. Кульминацией истории является самоубийство Гитлера, раздел Германии между союзниками и Нюрнбергский процесс.
[url=http://s40.radikal.ru/i090/1303/b8/c9f453250067.png][img]http://s40.radikal.ru/i090/1303/b8/c9f453250067t.jpg[/img][/url][url=http://s019.radikal.ru/i638/1303/1b/15b12f72d856.png][img]http://s019.radikal.ru/i638/1303/1b/15b12f72d856t.jpg[/img][/url][url=http://i078.radikal.ru/1303/65/1245a7f7d24f.png][img]http://i078.radikal.ru/1303/65/1245a7f7d24ft.jpg[/img][/url][url=http://s017.radikal.ru/i438/1303/d2/b1d123c7548c.png][img]http://s017.radikal.ru/i438/1303/d2/b1d123c7548ct.jpg[/img][/url][url=http://s018.radikal.ru/i500/1303/01/c0c19b66cc36.png][img]http://s018.radikal.ru/i500/1303/01/c0c19b66cc36t.jpg[/img][/url][url=http://s017.radikal.ru/i420/1303/8c/7642cb815cb6.png][img]http://s017.radikal.ru/i420/1303/8c/7642cb815cb6t.jpg[/img][/url]
[spoiler="MI"]General
Unique ID : 254689403278691966230094250725745040488 (0xBF9B651387B184049B577DB1DA731C68)
Complete name : C:UsersveebruarDesktopVtoraja mirovaja v HD cveteVtoraja mirovaja v HD cvete.12.Pobeda v Evrope_BDRip 720[R.G.RealMT] by veebruar.mkv
Format : Matroska
Format version : Version 2
File size : 2.18 GiB
Duration : 51mn 18s
Overall bit rate : 6 076 Kbps
Encoded date : UTC 2013-03-22 19:19:48
Writing application : mkvmerge v5.8.0 ('No Sleep / Pillow') built on Sep 2 2012 15:37:04
Writing library : libebml v1.2.3 + libmatroska v1.3.0

Video
ID : 1
Format : AVC
Format/Info : Advanced Video Codec
Format profile : High@L4.1
Format settings, CABAC : Yes
Format settings, ReFrames : 7 frames
Codec ID : V_MPEG4/ISO/AVC
Duration : 51mn 18s
Bit rate : 5 883 Kbps
Width : 1 280 pixels
Height : 720 pixels
Display aspect ratio : 16:9
Frame rate mode : Constant
Frame rate : 25.000 fps
Color space : YUV
Chroma subsampling : 4:2:0
Bit depth : 8 bits
Scan type : Progressive
Bits/(Pixel*Frame) : 0.255
Stream size : 2.07 GiB (95%)
Writing library : x264 core 125 r2208 d9d2288
Encoding settings : cabac=1 / ref=7 / deblock=1:-2:-1 / analyse=0x3:0x133 / me=umh / subme=11 / psy=1 / psy_rd=1.00:0.00 / mixed_ref=1 / me_range=16 / chroma_me=1 / trellis=2 / 8x8dct=1 / cqm=0 / deadzone=21,11 / fast_pskip=1 / chroma_qp_offset=-2 / threads=6 / lookahead_threads=1 / sliced_threads=0 / nr=0 / decimate=1 / interlaced=0 / bluray_compat=0 / constrained_intra=0 / bframes=7 / b_pyramid=2 / b_adapt=2 / b_bias=0 / direct=3 / weightb=1 / open_gop=0 / weightp=2 / keyint=250 / keyint_min=25 / scenecut=40 / intra_refresh=0 / rc_lookahead=60 / rc=2pass / mbtree=1 / bitrate=5883 / ratetol=1.0 / qcomp=0.60 / qpmin=0 / qpmax=69 / qpstep=4 / cplxblur=20.0 / qblur=0.5 / ip_ratio=1.40 / aq=1:1.00
Default : Yes
Forced : No

Audio
ID : 2
Format : AC-3
Format/Info : Audio Coding 3
Mode extension : CM (complete main)
Format settings, Endianness : Big
Codec ID : A_AC3
Duration : 51mn 18s
Bit rate mode : Constant
Bit rate : 192 Kbps
Channel(s) : 2 channels
Channel positions : Front: L R
Sampling rate : 48.0 KHz
Bit depth : 16 bits
Compression mode : Lossy
Stream size : 70.5 MiB (3%)
Title : VO
Language : Russian
Default : Yes
Forced : No
[/spoiler]
[/spoiler]
[spoiler="13. Победа в Тихом океане / Victory in Pacific"]К концу войны на Тихом океане японцы продолжали сражаться за каждый остров. В надежде заставить Японию сложить оружие американцы сбросили на Токио зажигательные бомбы, в результате чего погибли более 200 000 человек. И все равно японцы не сдавались. Тогда американский президент Трумэн принял решение пустить в ход атомные бомбы, - решение, которое обрекло на гибель города Хиросима и Нагасаки...
[url=http://s54.radikal.ru/i146/1303/38/04e763232790.png][img]http://s54.radikal.ru/i146/1303/38/04e763232790t.jpg[/img][/url][url=http://s55.radikal.ru/i147/1303/b1/d77e9e0acdf4.png][img]http://s55.radikal.ru/i147/1303/b1/d77e9e0acdf4t.jpg[/img][/url][url=http://s017.radikal.ru/i424/1303/dd/189270810c7e.png][img]http://s017.radikal.ru/i424/1303/dd/189270810c7et.jpg[/img][/url][url=http://s61.radikal.ru/i172/1303/42/f87f39161e56.png][img]http://s61.radikal.ru/i172/1303/42/f87f39161e56t.jpg[/img][/url][url=http://s017.radikal.ru/i422/1303/d2/1e67b993e4fd.png][img]http://s017.radikal.ru/i422/1303/d2/1e67b993e4fdt.jpg[/img][/url][url=http://s017.radikal.ru/i408/1303/8a/fb4df081d080.png][img]http://s017.radikal.ru/i408/1303/8a/fb4df081d080t.jpg[/img][/url]
[spoiler="MI"]General
Unique ID : 184815860358153572778039694894955904642 (0x8B0A3D6E6BDC4C0BB6FEC0DABDA63E82)
Complete name : C:UsersveebruarDesktopVtoraja mirovaja v HD cveteVtoraja mirovaja v HD cvete.13.Pobeda v Tihom okeane_BDRip 720[R.G.RealMT] by veebruar.mkv
Format : Matroska
Format version : Version 2
File size : 2.18 GiB
Duration : 51mn 17s
Overall bit rate : 6 078 Kbps
Encoded date : UTC 2013-03-23 01:14:30
Writing application : mkvmerge v5.8.0 ('No Sleep / Pillow') built on Sep 2 2012 15:37:04
Writing library : libebml v1.2.3 + libmatroska v1.3.0

Video
ID : 1
Format : AVC
Format/Info : Advanced Video Codec
Format profile : High@L4.1
Format settings, CABAC : Yes
Format settings, ReFrames : 7 frames
Codec ID : V_MPEG4/ISO/AVC
Duration : 51mn 17s
Bit rate : 5 885 Kbps
Width : 1 280 pixels
Height : 720 pixels
Display aspect ratio : 16:9
Frame rate mode : Constant
Frame rate : 25.000 fps
Color space : YUV
Chroma subsampling : 4:2:0
Bit depth : 8 bits
Scan type : Progressive
Bits/(Pixel*Frame) : 0.255
Stream size : 2.07 GiB (95%)
Writing library : x264 core 125 r2208 d9d2288
Encoding settings : cabac=1 / ref=7 / deblock=1:-2:-1 / analyse=0x3:0x133 / me=umh / subme=11 / psy=1 / psy_rd=1.00:0.00 / mixed_ref=1 / me_range=16 / chroma_me=1 / trellis=2 / 8x8dct=1 / cqm=0 / deadzone=21,11 / fast_pskip=1 / chroma_qp_offset=-2 / threads=6 / lookahead_threads=1 / sliced_threads=0 / nr=0 / decimate=1 / interlaced=0 / bluray_compat=0 / constrained_intra=0 / bframes=7 / b_pyramid=2 / b_adapt=2 / b_bias=0 / direct=3 / weightb=1 / open_gop=0 / weightp=2 / keyint=250 / keyint_min=25 / scenecut=40 / intra_refresh=0 / rc_lookahead=60 / rc=2pass / mbtree=1 / bitrate=5885 / ratetol=1.0 / qcomp=0.60 / qpmin=0 / qpmax=69 / qpstep=4 / cplxblur=20.0 / qblur=0.5 / ip_ratio=1.40 / aq=1:1.00
Default : Yes
Forced : No

Audio
ID : 2
Format : AC-3
Format/Info : Audio Coding 3
Mode extension : CM (complete main)
Format settings, Endianness : Big
Codec ID : A_AC3
Duration : 51mn 17s
Bit rate mode : Constant
Bit rate : 192 Kbps
Channel(s) : 2 channels
Channel positions : Front: L R
Sampling rate : 48.0 KHz
Bit depth : 16 bits
Compression mode : Lossy
Stream size : 70.4 MiB (3%)
Title : VO
Language : Russian
Default : Yes
Forced : No
[/spoiler]
[/spoiler]
[b]Релиз от:[/b] R.G.RealMT



   Похожие торренты   Торрент   Размер 
В этой теме нет новых непрочитанных сообщений. Discovery: Вторая мировая в HD цвете / Discovery: World War II In HD Colour [01-13 из 13] (2009) HDRip от R.G.RealMT | P1

86 | 13

10.72 ГБ

В этой теме нет новых непрочитанных сообщений. Вторая мировая в HD цвете / World War II in HD Colour [01-13 из 13] (2009) BDRip 1080p

22 | 41

57.69 ГБ

В этой теме нет новых непрочитанных сообщений. Вторая мировая в HD цвете / World War II In HD Colour [13 из 13] (2009) SATRip

74 | 24

8.33 ГБ

В этой теме нет новых непрочитанных сообщений. Вторая мировая война в цвете [01-13 из 13] (2009-2011) HDRip-AVC от New-Team

21 | 15

12.08 ГБ

В этой теме нет новых непрочитанных сообщений. Вторая мировая война в цвете [01-13 из 13] (2009-2011) HDRip от New-Team

40 | 0

4.37 ГБ

В этой теме нет новых непрочитанных сообщений. Вторая мировая война в цвете [01-13 из 13] (2009-2011) HDRip от New-Team

609 | 46

7.96 ГБ

В этой теме нет новых непрочитанных сообщений. Апокалипсис: Вторая мировая война (Гитлер) / Apocalypse: The Second World War; Apocalypse - Hitler (2009-2011) BDRip 720p от ExKinoRay

190 | 79

27.5 ГБ




Вы не можете начинать темы
Вы не можете отвечать на сообщения
Вы не можете редактировать свои сообщения
Вы не можете удалять свои сообщения
Вы не можете добавлять вложения

Перейти:  
Для Мосгорсуда, Роскомнадзора и рекламодателей: mosgorsud-torrent[собачка]yandex.ru
 Вход
ppkBB3cker v.2 © 2008-2014 @ PPK
[ Time : 0.084s | 15 Queries | GZIP : Off ]

Торрент трекер RUTOR.IN, Не можете зайти на rutor.org? Какой новый адрес рутор? Какое зеркало рутор? Не работает rutor.org и зеркала? Тогда наш торрент специально для вас. Rutor.in неофициальное зеркало rutor. В случае если у Вас заблокирован rutor или вдруг Вы не можете на него зайти, то Вы без труда сможете скачать бесплатно и без рекламы последние новинки кино, игр, сериалов и прочего у нас, на Rutor.in. Не нужно использовать прокси, чтобы зайти на рутор, достаточно воспользоваться нашим ресурсом. Все новые фильмы, игры, сериалы, книги и музыка за 2013 и 2014 годы через торрент бесплатно. Скачивайте фильмы в хорошем качестве, игры для пк, xbox, playstation без регистрации. У нас вы найдете новые Зарубежные сериалы и Русские сериалы 2013, 2014, 2015 годов. Оставайтесь с нами, качайте любимые фильмы, игры, сериалы, книги и музыку.