img image001 image001 image001 image001 image001 image001 image001 image001 image001 image001 image001 image001 image001 image001 image001

Planets Sun Sun Sun
Статистика раздачи
Автор: Снежана | Размер: 693.73 МБ | Добавлен: 25 июл 2013
Раздают: 6    Качают: 3
Скачать торрент
Скачать торрент
Описание торрента

СообщениеДобавлено: 25 июл 2013 

#77

Год выхода: 2010
Жанр: Документальный, научно-популярный, история
Выпущено: США / Nova Scotia Film
Продолжительность: 00:42:12
Перевод: Профессиональный (многоголосый закадровый)/[СВ-Дубль по заказу ГТРК "Культура"]

Режиссер: Эндрю Килауэ / Andrew Kilaue

О фильме: Август 1179 года, переправа Иакова - стратегически важное место в самом сердце Святой земли. Здесь рыцари-тамплиеры, лучшие воины крестоносцев, возводят мощную крепость. Салладин, бесстрашный предводитель мусульман, приходит в ярость... Его войска совершают нападение на эти укрепления. За 6 дней кровавой резни было истреблено 800 тамплиеров...

Качество: HDRip
Формат:AVI
Видео кодек: XviD
Аудио кодек: MP3
Видео: 16:9, 2096 Кбит/сек, 720x400, 25,000 кадров/сек
Аудио: MP3, 2 канала, 192 Кбит/сек, 48,0 КГц



Общее
Полное имя : D:Последнее пристанище тамплиеров .avi
Формат : AVI
Формат/Информация : Audio Video Interleave
Размер файла : 694 Мбайт
Продолжительность : 42 м.
Общий поток : 2298 Кбит/сек
Программа кодирования : VirtualDubMod 1.5.10.3 | www.virtualdub-fr.org || (build 2550/release)
Библиотека кодирования : VirtualDubMod build 2550/release

Видео
Идентификатор : 0
Формат : MPEG-4 Visual
Профиль формата : Advanced Simple@L5
Параметр BVOP формата : 2
Параметр QPel формата : Нет
Параметр GMC формата : Без точки перехода
Параметр матрицы формата : Default (H.263)
Режим смешивания : Сжатый битовый поток
Идентификатор кодека : XVID
Идентификатор кодека/Подсказка : XviD
Продолжительность : 42 м.
Битрейт : 2096 Кбит/сек
Ширина : 720 пикселей
Высота : 400 пикселей
Соотношение сторон : 16:9
Частота кадров : 25,000 кадров/сек
Цветовое пространство : YUV
Субдискретизация насыщенности : 4:2:0
Битовая глубина : 8 бит
Тип развёртки : Прогрессивная
Метод сжатия : С потерями
Бит/(Пиксели*Кадры) : 0.291
Размер потока : 633 Мбайт (91%)
Библиотека кодирования : XviD 1.2.1 (UTC 2008-12-04)

Аудио
Идентификатор : 1
Формат : MPEG Audio
Версия формата : Version 1
Профиль формата : Layer 3
Идентификатор кодека : 55
Идентификатор кодека/Подсказка : MP3
Продолжительность : 42 м.
Вид битрейта : Постоянный
Битрейт : 192 Кбит/сек
Каналы : 2 канала
Частота : 48,0 КГц
Метод сжатия : С потерями
Размер потока : 58,0 Мбайт (8%)
Выравнивание : Соединение по промежуткам
Продолжительность промежутка : 40 мс. (1,00 видеокадр)
Время предзагрузки промежутка : 504 мс.
Библиотека кодирования : LAME3.99r
Настройки программы : -m s -V 4 -q 2 -lowpass 18.6 -b 192

Релиз от: от R.G.RealMT



   Похожие торренты   Торрент   Размер 
В этой теме нет новых непрочитанных сообщений. National Geographic: Последнее пристанище тамплиеров / The last stand of the templar's / Die Tempelritter - Die Rache Saladins (2010) BDRip 720p от R.G.RealMT | P

3 | 2

2.18 ГБ

В этой теме нет новых непрочитанных сообщений. NG: Последнее пристанище тамплиеров / Die Tempelritter - Die Rache Saladins (2010) BDRip 720p от GYN

6 | 2

2.91 ГБ

В этой теме нет новых непрочитанных сообщений. National Geographic: Самые странные в мире / National Geographic: World's Weirdest [1-3 из 3] (2010) HDRip-AVC 720p

6 | 5

5.63 ГБ

В этой теме нет новых непрочитанных сообщений. National Geographic: Столкновение континентов. Конец Рая / National Geographic: Clash of the Continents. End of Eden (2010) SATRip от tenow.

2 | 1

480.89 МБ

В этой теме нет новых непрочитанных сообщений. National Geographic: Замбези: Источник жизни / National Geographic: Zambezi: Source of Life (2010) SATRip от tenow

17 | 5

608.46 МБ

В этой теме нет новых непрочитанных сообщений. National Geographic: Затмение острова Пасхи / National Geographic: Easter Island Eclipse (2010) HDTVRip 720p

1 | 3

1.26 ГБ

В этой теме нет новых непрочитанных сообщений. National Geographic. В объективе Белый дом / National Geographic. The Obama White House: Through The Lens (2010) TVRip от tenow

0 | 3

699.22 МБ




Вы не можете начинать темы
Вы не можете отвечать на сообщения
Вы не можете редактировать свои сообщения
Вы не можете удалять свои сообщения
Вы не можете добавлять вложения

Перейти:  
Для Мосгорсуда, Роскомнадзора и рекламодателей: mosgorsud-torrent[собачка]yandex.ru
 Вход
ppkBB3cker v.2 © 2008-2014 @ PPK
[ Time : 0.033s | 14 Queries | GZIP : Off ]

Торрент трекер RUTOR.IN, Не можете зайти на rutor.org? Какой новый адрес рутор? Какое зеркало рутор? Не работает rutor.org и зеркала? Тогда наш торрент специально для вас. Rutor.in неофициальное зеркало rutor. В случае если у Вас заблокирован rutor или вдруг Вы не можете на него зайти, то Вы без труда сможете скачать бесплатно и без рекламы последние новинки кино, игр, сериалов и прочего у нас, на Rutor.in. Не нужно использовать прокси, чтобы зайти на рутор, достаточно воспользоваться нашим ресурсом. Все новые фильмы, игры, сериалы, книги и музыка за 2013 и 2014 годы через торрент бесплатно. Скачивайте фильмы в хорошем качестве, игры для пк, xbox, playstation без регистрации. У нас вы найдете новые Зарубежные сериалы и Русские сериалы 2013, 2014, 2015 годов. Оставайтесь с нами, качайте любимые фильмы, игры, сериалы, книги и музыку.