img image001 image001 image001 image001 image001 image001 image001 image001 image001 image001 image001 image001 image001 image001 image001

Planets Sun Sun Sun
Статистика раздачи
Автор: Снежана | Размер: 738.41 МБ | Добавлен: 24 июл 2013
Раздают: 0    Качают: 3
Скачать торрент
Скачать торрент
Описание торрента

СообщениеДобавлено: 24 июл 2013 

#77

Год выпуска: 2013
Страна: США
Студия: National Geographic Channel
Жанр: Документальный, познавательный, этнография, религия
Продолжительность: 00:44:51
Перевод: Одноголосый закадровый
Русские субтитры: нет
Режиссер: Саша Мирзоефф / Sacha Mirzoeff

В ролях: Диего Бюнюэль

Описание: Каждые 12 лет в Аллахабаде (Индия) на берегу священной для индусов реки Ганг проводится грандиознейший праздник Маха Кумбха Мела, собирающий десятки миллионов человек...

Качество: HDTVRip
Формат:AVI
Видео кодек: XviD
Аудио кодек: MP3
Видео: 16:9, 2100 Кбит/сек, 720x400, 25,000 кадров/сек
Аудио: MP3, 2 канала, 192 Кбит/сек, 48,0 КГц



Общее
Полное имя : D:Кумбха мела HDTVRip.[R.G.RealMT].avi
Формат : AVI
Формат/Информация : Audio Video Interleave
Размер файла : 738 Мбайт
Продолжительность : 44 м.
Общий поток : 2301 Кбит/сек
Программа кодирования : VirtualDubMod 1.5.10.3 | www.virtualdub-fr.org || (build 2550/release)
Библиотека кодирования : VirtualDubMod build 2550/release

Видео
Идентификатор : 0
Формат : MPEG-4 Visual
Профиль формата : Advanced Simple@L5
Параметр BVOP формата : 2
Параметр QPel формата : Нет
Параметр GMC формата : Без точки перехода
Параметр матрицы формата : Default (H.263)
Режим смешивания : Сжатый битовый поток
Идентификатор кодека : XVID
Идентификатор кодека/Подсказка : XviD
Продолжительность : 44 м.
Битрейт : 2100 Кбит/сек
Ширина : 720 пикселей
Высота : 400 пикселей
Соотношение сторон : 16:9
Частота кадров : 25,000 кадров/сек
Цветовое пространство : YUV
Субдискретизация насыщенности : 4:2:0
Битовая глубина : 8 бит
Тип развёртки : Прогрессивная
Метод сжатия : С потерями
Бит/(Пиксели*Кадры) : 0.292
Размер потока : 674 Мбайт (91%)
Библиотека кодирования : XviD 1.2.1 (UTC 2008-12-04)

Аудио
Идентификатор : 1
Формат : MPEG Audio
Версия формата : Version 1
Профиль формата : Layer 3
Идентификатор кодека : 55
Идентификатор кодека/Подсказка : MP3
Продолжительность : 44 м.
Вид битрейта : Постоянный
Битрейт : 192 Кбит/сек
Каналы : 2 канала
Частота : 48,0 КГц
Метод сжатия : С потерями
Размер потока : 61,6 Мбайт (8%)
Выравнивание : Соединение по промежуткам
Продолжительность промежутка : 40 мс. (1,00 видеокадр)
Время предзагрузки промежутка : 504 мс.
Библиотека кодирования : LAME3.99r
Настройки программы : -m s -V 4 -q 2 -lowpass 18.6 -b 192


Релиз от: R.G.RealMT



   Похожие торренты   Торрент   Размер 
В этой теме нет новых непрочитанных сообщений. National Geographic: Самые опасные акулы / National Geographic: World's Deadliest Sharks (2011) HDTVRip от R.G.RealMT | P1

5 | 3

790.21 МБ

В этой теме нет новых непрочитанных сообщений. National Geographic. Суперсооружения: Самая крупная металлодробилка в мире / National Geographic. MegaStructures: The World's Biggest Shre (2009) SATRip от tenow

0 | 1

609.77 МБ

В этой теме нет новых непрочитанных сообщений. National Geographic: Чудеса инженерии: Ледоколы / National Geographic: Big Bigger Biggest. Icebreaker (2012) SATRip

25 | 4

650.43 МБ

В этой теме нет новых непрочитанных сообщений. National Geographic: Секреты дикой Индии / National Geographic: Secrets of Wild India [01-03 из 03] (2011) HDRip от R.G.RealMT | А

3 | 2

2.32 ГБ

В этой теме нет новых непрочитанных сообщений. National Geographic: Рождение Европы / National Geographic: Birth of Europe [01-03 из 03] (2011) HDRip от R.G.RealMT

2 | 5

2.17 ГБ

В этой теме нет новых непрочитанных сообщений. National Geographic : Шесть° градусов могут изменить мир / National Geographic : Six° Degrees Could Change the World (2008) HDRip

5 | 5

749.03 МБ

В этой теме нет новых непрочитанных сообщений. National Geographic. Суперсооружения: Островное чудо света / National Geographic. MegaStructures: World Island Wonder (2008) SATRip от tenow

0 | 8

513.17 МБ




Вы не можете начинать темы
Вы не можете отвечать на сообщения
Вы не можете редактировать свои сообщения
Вы не можете удалять свои сообщения
Вы не можете добавлять вложения

Перейти:  
Для Мосгорсуда, Роскомнадзора и рекламодателей: mosgorsud-torrent[собачка]yandex.ru
 Вход
ppkBB3cker v.2 © 2008-2014 @ PPK
[ Time : 0.030s | 15 Queries | GZIP : Off ]

cron