img image001 image001 image001 image001 image001 image001 image001 image001 image001 image001 image001 image001 image001 image001 image001

Planets Sun Sun Sun
Статистика раздачи
Автор: Снежана | Размер: 8.14 ГБ | Добавлен: 24 июл 2013
Раздают: 4    Качают: 4
Скачать торрент
Скачать торрент
Описание торрента

СообщениеДобавлено: 24 июл 2013 

Секреты дикой Индии

Secrets of Wild India




#77

Год выпуска: 2011
Страна: США , National Geographic
Жанр: Документальный, научно-познавательный, фауна, природа,
Продолжительность: 3 ~ 00:48:01
Перевод: Авторский (одноголосый закадровый)
Субтитры: Russian (VobSub), Russian (UTF-8)
Недостающие в переводе фразы: (3 минуты на серию) переведены субтитрами.

Режиссер: Дункан Чард

В ролях: Дэвид Аттенборо / David Attenborough (Актер)


Описание: Индия, являющаяся домом для более чем миллиарда человек, имеет и дикие области, населенные великанами, хищниками и экзотическими существами. Легендарный натуралист сэр Дэвид Аттенборо в очередном фильме из серии "Дикая природа" расскажет о удивительной природе этой загадочной страны. Вы посмотрите на мир гигантских травоядных, обитающих в предгорьях Гималаев в Индии, глазами новорожденного слонёнка; окунетесь в суровые условия пустынь и соляных пустошей северо-запада Индии, где лишь самые выносливые животные могут выдерживать песчаные бури, засуху и зной; окажитесь на поле боя, где правят клыки и когти, хищники, такие как бенгальский тигр и красный волк, конкурируют за территорию, воду и пищу.

Содержание:
1: В царстве слонов / Elephant Kingdom
2: Хищники джунглей / Tiger Jungles
3: Львы пустыни / Desert Lions


Качество: BDRip
Формат: MKV
Видео кодек: AVC
Аудио кодеk: AC3
Видео: 1920x1080 (16:9), 25.000 fps, AVC, 7 705 Kbps
Аудио #1: AC3, 192 Kbps, 48.0 KHz, 2 ch RUS AVO)
Аудио #2: AC3, 192 Kbps, 48.0 KHz, 6 ch (Engl)




General
Complete name : Epizod.1/2/3.mkv
Format : Matroska
File size : 2.71 GiB
Duration : 48mn 1s
Overall bit rate : 8 089 Kbps
Movie name : В царстве слонов, Хищники джунглей, Львы пустыни
Encoded date : UTC 2013-03-31 17:09:03
Writing application : mkvmerge v5.3.0 ('I could have danced') built on Feb 9 2012 10:38:07
Writing library : libebml v1.2.3 + libmatroska v1.3.0

Video
ID : 1
Format : AVC
Format/Info : Advanced Video Codec
Format profile : High@L4.1
Format settings, CABAC : Yes
Format settings, ReFrames : 4 frames
Muxing mode : Container profile=Unknown@4.1
Codec ID : V_MPEG4/ISO/AVC
Duration : 48mn 1s
Bit rate : 7 705 Kbps
Width : 1 920 pixels
Height : 1 080 pixels
Display aspect ratio : 16:9
Frame rate : 25.000 fps
Color space : YUV
Chroma subsampling : 4:2:0
Bit depth : 8 bits
Scan type : Progressive
Bits/(Pixel*Frame) : 0.149
Stream size : 2.53 GiB (93%)
Writing library : x264 core 129 r2230 1cffe9f
Encoding settings : cabac=1 / ref=4 / deblock=1:-3:-3 / analyse=0x3:0x133 / me=umh / subme=10 / psy=1 / psy_rd=1.00:0.00 / mixed_ref=1 / me_range=32 / chroma_me=1 / trellis=2 / 8x8dct=1 / cqm=0 / deadzone=21,11 / fast_pskip=0 / chroma_qp_offset=-2 / threads=6 / lookahead_threads=1 / sliced_threads=0 / nr=0 / decimate=1 / interlaced=0 / bluray_compat=0 / constrained_intra=0 / bframes=8 / b_pyramid=2 / b_adapt=2 / b_bias=0 / direct=3 / weightb=1 / open_gop=0 / weightp=2 / keyint=250 / keyint_min=25 / scenecut=40 / intra_refresh=0 / rc=2pass / mbtree=0 / bitrate=7705 / ratetol=2.0 / qcomp=1.00 / qpmin=0 / qpmax=51 / qpstep=4 / cplxblur=20.0 / qblur=0.5 / ip_ratio=1.40 / pb_ratio=1.30 / aq=1:1.00
Color primaries : BT.709-5, BT.1361, IEC 61966-2-4, SMPTE RP177
Transfer characteristics : BT.709-5, BT.1361
Matrix coefficients : BT.709-5, BT.1361, IEC 61966-2-4 709, SMPTE RP177

Audio #1
ID : 2
Format : AC-3
Format/Info : Audio Coding 3
Mode extension : CM (complete main)
Codec ID : A_AC3
Duration : 48mn 1s
Bit rate mode : Constant
Bit rate : 192 Kbps
Channel(s) : 2 channels
Channel positions : Front: L R
Sampling rate : 48.0 KHz
Bit depth : 16 bits
Stream size : 65.9 MiB (2%)
Language : Russian

Audio #2
ID : 3
Format : AC-3
Format/Info : Audio Coding 3
Mode extension : CM (complete main)
Codec ID : A_AC3
Duration : 48mn 1s
Bit rate mode : Constant
Bit rate : 192 Kbps
Channel(s) : 6 channels
Channel positions : Front: L C R, Side: L R, LFE
Sampling rate : 48.0 KHz
Bit depth : 16 bits
Stream size : 65.9 MiB (2%)

Text #1
ID : 4
Format : VobSub
Codec ID : S_VOBSUB
Codec ID/Info : The same subtitle format used on DVDs
Language : Russian

Text #2
ID : 5
Format : UTF-8
Codec ID : S_TEXT/UTF8
Codec ID/Info : UTF-8 Plain Text
Language : Russian

Menu
00:00:00.000 : en:00:00:00.000
00:08:27.200 : en:00:08:27.200
00:15:25.800 : en:00:15:25.800
00:23:40.800 : en:00:23:40.800
00:33:59.000 : en:00:33:59.000
00:40:51.000 : en:00:40:51.000





Релиз от:



   Похожие торренты   Торрент   Размер 
В этой теме нет новых непрочитанных сообщений. National Geographic: Секреты дикой Индии / National Geographic: Secrets of Wild India [01-03 серии из 03] (2011) BDRip-AVC от Alex ST | A1

5 | 4

2.31 ГБ

В этой теме нет новых непрочитанных сообщений. National Geographic: Секреты дикой Индии / National Geographic: Secrets of Wild India [01-03 из 03] (2011) HDRip от R.G.RealMT | А

3 | 2

2.32 ГБ

В этой теме нет новых непрочитанных сообщений. Тайны дикой природы Индии: Львы пустыни / Secrets of Wild India: Desert Lions (2011) HDTVRip 720р от RG MixTorrent

6 | 7

936.08 МБ

В этой теме нет новых непрочитанных сообщений. Тайны дикой природы Индии: Хищники джунглей / Secrets of Wild India: Tiger Jungles (2011) HDTVRip 720р от RG MixTorrent

14 | 3

1.01 ГБ

В этой теме нет новых непрочитанных сообщений. Тайны дикой природы Индии: Львы пустыни / Secrets of Wild India: Desert Lions (2012) HDTVRip-AVC | D

5 | 3

699.7 МБ

В этой теме нет новых непрочитанных сообщений. Тайны дикой природы Индии: Львы пустыни / Secrets of Wild India: Desert Lions (2012) HDTVRip | D

7 | 5

699.7 МБ

В этой теме нет новых непрочитанных сообщений. Тайны дикой природы Индии: Хищники джунглей / Тигр Джунглей / Secrets of Wild India: Tiger Jungles (2012) HDTVRip от Leo.pard | D

46 | 6

700.42 МБ




Вы не можете начинать темы
Вы не можете отвечать на сообщения
Вы не можете редактировать свои сообщения
Вы не можете удалять свои сообщения
Вы не можете добавлять вложения

Перейти:  
Для Мосгорсуда, Роскомнадзора и рекламодателей: mosgorsud-torrent[собачка]yandex.ru
 Вход
ppkBB3cker v.2 © 2008-2014 @ PPK
[ Time : 0.049s | 17 Queries | GZIP : Off ]

cron