img image001 image001 image001 image001 image001 image001 image001 image001 image001 image001 image001 image001 image001 image001 image001

Planets Sun Sun Sun
Статистика раздачи
Автор: Снежана | Размер: 1.36 ГБ | Добавлен: 25 июл 2013
Раздают: 4    Качают: 3
Скачать торрент
Скачать торрент
Описание торрента

СообщениеДобавлено: 25 июл 2013 

#77

Информация о фильме
Название: Дикая природа Японии
Оригинальное название: Wildes Japan
Год выхода: 2010
Жанр: Документальный
Режиссер: Jens Westphalen, Thoralf Grospitz

О фильме:
Этот документальный фильм с живописными пейзажами, отснятый в HD-качестве, описывает дикую природу Японии, с ее захватывающими дух ландшафтами и населяющими ее редкими животными. Этот фильм - сенсационная поездка по Дикой Японии - островному государству, полному противоположностей. Крайне редко где можно встретить такое многообразие и различия флоры и фауны в пределах одной страны. Фильм расскажет как о мегаполисах, таких как Токио, с одной стороны и отдаленных горных долинах, с древнейшими историческими традициями, с другой. Фильм состоит из двух частей: "Снежные обезьяны и вулканы" и "Тропическое побережье и страна медведей".

Страна: Германия
Студия: Polyband/WVG
Продолжительность: 2 x ~ 00:43:22
Перевод: Профессиональный одноголосый закадровый (Юрий Сербин)

Файл
Качество: HDRip
Формат:AVI
Видео кодек: XViD
Аудио кодек: AC3
Видео: XviD 65, 16:9, ~2048 kbps, 720x400, 25 fps, 0.285 bit/pixel
Аудио: AC3, 2 канала, 192 Кбит/сек, 48,0 КГц


General
Complete name : C:UsersveebruarDesktopДокументальныйяпония_HDRipSnezhnye obez'jany i vulkany_Episode 1_HDRip[R.G.RealMT] by veebruar.avi
Format : AVI
Format/Info : Audio Video Interleave
File size : 698 MiB
Duration : 43mn 20s
Overall bit rate : 2 253 Kbps
Writing application : VirtualDubMod 1.5.10.3 | www.virtualdub-fr.org || (build 2550/release)
Writing library : VirtualDubMod build 2550/release

Video
ID : 0
Format : MPEG-4 Visual
Format profile : Advanced Simple@L5
Format settings, BVOP : 2
Format settings, QPel : No
Format settings, GMC : No warppoints
Format settings, Matrix : Default (MPEG)
Codec ID : XVID
Codec ID/Hint : XviD
Duration : 43mn 20s
Bit rate : 2 051 Kbps
Width : 720 pixels
Height : 400 pixels
Display aspect ratio : 16:9
Frame rate : 25.000 fps
Color space : YUV
Chroma subsampling : 4:2:0
Bit depth : 8 bits
Scan type : Progressive
Compression mode : Lossy
Bits/(Pixel*Frame) : 0.285
Stream size : 636 MiB (91%)
Writing library : XviD 65

Audio
ID : 1
Format : AC-3
Format/Info : Audio Coding 3
Mode extension : CM (complete main)
Format settings, Endianness : Big
Codec ID : 2000
Duration : 43mn 20s
Bit rate mode : Constant
Bit rate : 192 Kbps
Channel(s) : 2 channels
Channel positions : Front: L R
Sampling rate : 48.0 KHz
Bit depth : 16 bits
Compression mode : Lossy
Stream size : 59.5 MiB (9%)
Alignment : Split accross interleaves
Interleave, duration : 40 ms (1.00 video frame)
Interleave, preload duration : 500 ms


General
Complete name : C:UsersveebruarDesktopДокументальныйяпония_HDRipTropicheskoe poberezh'e i strana medvedej_Episode 2_HDRip[R.G.RealMT] by veebruar.avi
Format : AVI
Format/Info : Audio Video Interleave
File size : 698 MiB
Duration : 43mn 22s
Overall bit rate : 2 250 Kbps
Writing application : VirtualDubMod 1.5.10.3 | www.virtualdub-fr.org || (build 2550/release)
Writing library : VirtualDubMod build 2550/release

Video
ID : 0
Format : MPEG-4 Visual
Format profile : Advanced Simple@L5
Format settings, BVOP : 2
Format settings, QPel : No
Format settings, GMC : No warppoints
Format settings, Matrix : Default (MPEG)
Codec ID : XVID
Codec ID/Hint : XviD
Duration : 43mn 22s
Bit rate : 2 048 Kbps
Width : 720 pixels
Height : 400 pixels
Display aspect ratio : 16:9
Frame rate : 25.000 fps
Color space : YUV
Chroma subsampling : 4:2:0
Bit depth : 8 bits
Scan type : Progressive
Compression mode : Lossy
Bits/(Pixel*Frame) : 0.284
Stream size : 636 MiB (91%)
Writing library : XviD 65

Audio
ID : 1
Format : AC-3
Format/Info : Audio Coding 3
Mode extension : CM (complete main)
Format settings, Endianness : Big
Codec ID : 2000
Duration : 43mn 22s
Bit rate mode : Constant
Bit rate : 192 Kbps
Channel(s) : 2 channels
Channel positions : Front: L R
Sampling rate : 48.0 KHz
Bit depth : 16 bits
Compression mode : Lossy
Stream size : 59.6 MiB (9%)
Alignment : Split accross interleaves
Interleave, duration : 40 ms (1.00 video frame)
Interleave, preload duration : 500 ms



   Похожие торренты   Торрент   Размер 
В этой теме нет новых непрочитанных сообщений. Дикая природа Японии / Wildes Japan (2010) BDRip 720p от R.G.RealMT | P1

1 | 3

4.35 ГБ

В этой теме нет новых непрочитанных сообщений. Дикая природа Японии / Wildes Japan (2010) BDRip 1080i | P1

90 | 17

13.43 ГБ

В этой теме нет новых непрочитанных сообщений. Дикая природа Скандинавии / Wildes Skandinavien [01-07 из 07] (2011) HDRip от R.G.RealMT

3 | 38

4.91 ГБ

В этой теме нет новых непрочитанных сообщений. Дикая природа России / Wild Russia [S1] (2009) HDRip от R.G.RealMT | P1

18 | 6

5.05 ГБ

В этой теме нет новых непрочитанных сообщений. National Geographic. Дикая природа Америки / Untamed Americas (2012) HDRip от R.G.RealMT | A

3 | 2

2.92 ГБ

В этой теме нет новых непрочитанных сообщений. Дикая природа Анд / Wild Faces of the Andes / Im Schatten der Anden (2011) HDRip от R.G.RealMT | P1

4 | 2

847.04 МБ

В этой теме нет новых непрочитанных сообщений. Дикая природа Скандинавии / Wildes Skandinavien [01-07 из 07] (2011) BDRip от ExKinoRay

2 | 7

4.44 ГБ




Вы не можете начинать темы
Вы не можете отвечать на сообщения
Вы не можете редактировать свои сообщения
Вы не можете удалять свои сообщения
Вы не можете добавлять вложения

Перейти:  
Для Мосгорсуда, Роскомнадзора и рекламодателей: mosgorsud-torrent[собачка]yandex.ru
 Вход
ppkBB3cker v.2 © 2008-2014 @ PPK
[ Time : 0.028s | 14 Queries | GZIP : Off ]

Торрент трекер RUTOR.IN, Не можете зайти на rutor.org? Какой новый адрес рутор? Какое зеркало рутор? Не работает rutor.org и зеркала? Тогда наш торрент специально для вас. Rutor.in неофициальное зеркало rutor. В случае если у Вас заблокирован rutor или вдруг Вы не можете на него зайти, то Вы без труда сможете скачать бесплатно и без рекламы последние новинки кино, игр, сериалов и прочего у нас, на Rutor.in. Не нужно использовать прокси, чтобы зайти на рутор, достаточно воспользоваться нашим ресурсом. Все новые фильмы, игры, сериалы, книги и музыка за 2013 и 2014 годы через торрент бесплатно. Скачивайте фильмы в хорошем качестве, игры для пк, xbox, playstation без регистрации. У нас вы найдете новые Зарубежные сериалы и Русские сериалы 2013, 2014, 2015 годов. Оставайтесь с нами, качайте любимые фильмы, игры, сериалы, книги и музыку.