img image001 image001 image001 image001 image001 image001 image001 image001 image001 image001 image001 image001 image001 image001 image001

Planets Sun Sun Sun
Статистика раздачи
Автор: Снежана | Размер: 4.35 ГБ | Добавлен: 24 июл 2013
Раздают: 1    Качают: 3
Скачать торрент
Скачать торрент
Описание торрента

СообщениеДобавлено: 24 июл 2013 

#77

Информация о фильме
Название: Дикая природа Японии
Оригинальное название: Wildes Japan
Год выхода: 2010
Жанр: Документальный
Режиссер: Jens Westphalen, Thoralf Grospitz

О фильме:
Этот документальный фильм с живописными пейзажами, отснятый в HD-качестве, описывает дикую природу Японии, с ее захватывающими дух ландшафтами и населяющими ее редкими животными. Этот фильм - сенсационная поездка по Дикой Японии - островному государству, полному противоположностей. Крайне редко где можно встретить такое многообразие и различия флоры и фауны в пределах одной страны. Фильм расскажет как о мегаполисах, таких как Токио, с одной стороны и отдаленных горных долинах, с древнейшими историческими традициями, с другой. Фильм состоит из двух частей: "Снежные обезьяны и вулканы" и "Тропическое побережье и страна медведей".

Страна: Германия
Студия: Polyband/WVG
Продолжительность: 2 x ~ 00:43:22
Перевод: Профессиональный одноголосый закадровый (Юрий Сербин)

Файл
Качество: BDRip 720p
Формат:MKV
Видео кодек: x264
Аудио кодек: AC3
Видео: 16:9, ~6995 Кбит/сек, 1280x720, 25 кадра/сек
Аудио: AC3, 2 канала, 192 Кбит/сек, 48,0 КГц



General
Unique ID : 235898210221432841455111056760417949117 (0xB17857BA7C17B646BC0B326058FA15BD)
Complete name : C:UsersveebruarDesktopДокументальныйDikaja priroda Japonii_BDRip_720Snezhnye obez'jany i vulkany_Episode 1_BDRip 720[R.G.RealMT] by veebruar.mkv
Format : Matroska
Format version : Version 2
File size : 2.18 GiB
Duration : 43mn 21s
Overall bit rate : 7 190 Kbps
Encoded date : UTC 2013-03-26 09:52:48
Writing application : mkvmerge v5.8.0 ('No Sleep / Pillow') built on Sep 2 2012 15:37:04
Writing library : libebml v1.2.3 + libmatroska v1.3.0

Video
ID : 1
Format : AVC
Format/Info : Advanced Video Codec
Format profile : High@L4.1
Format settings, CABAC : Yes
Format settings, ReFrames : 7 frames
Codec ID : V_MPEG4/ISO/AVC
Duration : 43mn 21s
Bit rate : 7 000 Kbps
Width : 1 280 pixels
Height : 720 pixels
Display aspect ratio : 16:9
Frame rate mode : Constant
Frame rate : 25.000 fps
Color space : YUV
Chroma subsampling : 4:2:0
Bit depth : 8 bits
Scan type : Progressive
Bits/(Pixel*Frame) : 0.304
Stream size : 2.08 GiB (95%)
Writing library : x264 core 125 r2208 d9d2288
Encoding settings : cabac=1 / ref=7 / deblock=1:-2:-1 / analyse=0x3:0x133 / me=umh / subme=11 / psy=1 / psy_rd=1.00:0.00 / mixed_ref=1 / me_range=16 / chroma_me=1 / trellis=2 / 8x8dct=1 / cqm=0 / deadzone=21,11 / fast_pskip=1 / chroma_qp_offset=-2 / threads=6 / lookahead_threads=1 / sliced_threads=0 / nr=0 / decimate=1 / interlaced=0 / bluray_compat=0 / constrained_intra=0 / bframes=7 / b_pyramid=2 / b_adapt=2 / b_bias=0 / direct=3 / weightb=1 / open_gop=0 / weightp=2 / keyint=250 / keyint_min=25 / scenecut=40 / intra_refresh=0 / rc_lookahead=60 / rc=2pass / mbtree=1 / bitrate=7000 / ratetol=1.0 / qcomp=0.60 / qpmin=0 / qpmax=69 / qpstep=4 / cplxblur=20.0 / qblur=0.5 / ip_ratio=1.40 / aq=1:1.00
Default : Yes
Forced : No

Audio
ID : 2
Format : AC-3
Format/Info : Audio Coding 3
Mode extension : CM (complete main)
Format settings, Endianness : Big
Codec ID : A_AC3
Duration : 43mn 21s
Bit rate mode : Constant
Bit rate : 192 Kbps
Channel(s) : 6 channels
Channel positions : Front: L C R, Side: L R, LFE
Sampling rate : 48.0 KHz
Bit depth : 16 bits
Compression mode : Lossy
Stream size : 59.5 MiB (3%)
Default : Yes
Forced : No



General
Unique ID : 249278042868151086970086611879397563130 (0xBB893468C7711B9D840BA4C3C27A1AFA)
Complete name : C:UsersveebruarDesktopДокументальныйDikaja priroda Japonii_BDRip_720Tropicheskoe poberezh'e i strana medvedej_Episode 2_BDRip 720[R.G.RealMT] by veebruar.mkv
Format : Matroska
Format version : Version 2
File size : 2.18 GiB
Duration : 43mn 23s
Overall bit rate : 7 186 Kbps
Encoded date : UTC 2013-03-26 16:07:28
Writing application : mkvmerge v5.8.0 ('No Sleep / Pillow') built on Sep 2 2012 15:37:04
Writing library : libebml v1.2.3 + libmatroska v1.3.0

Video
ID : 1
Format : AVC
Format/Info : Advanced Video Codec
Format profile : High@L4.1
Format settings, CABAC : Yes
Format settings, ReFrames : 7 frames
Codec ID : V_MPEG4/ISO/AVC
Duration : 43mn 23s
Bit rate : 6 995 Kbps
Width : 1 280 pixels
Height : 720 pixels
Display aspect ratio : 16:9
Frame rate mode : Constant
Frame rate : 25.000 fps
Color space : YUV
Chroma subsampling : 4:2:0
Bit depth : 8 bits
Scan type : Progressive
Bits/(Pixel*Frame) : 0.304
Stream size : 2.08 GiB (95%)
Writing library : x264 core 125 r2208 d9d2288
Encoding settings : cabac=1 / ref=7 / deblock=1:-2:-1 / analyse=0x3:0x133 / me=umh / subme=11 / psy=1 / psy_rd=1.00:0.00 / mixed_ref=1 / me_range=16 / chroma_me=1 / trellis=2 / 8x8dct=1 / cqm=0 / deadzone=21,11 / fast_pskip=1 / chroma_qp_offset=-2 / threads=6 / lookahead_threads=1 / sliced_threads=0 / nr=0 / decimate=1 / interlaced=0 / bluray_compat=0 / constrained_intra=0 / bframes=7 / b_pyramid=2 / b_adapt=2 / b_bias=0 / direct=3 / weightb=1 / open_gop=0 / weightp=2 / keyint=250 / keyint_min=25 / scenecut=40 / intra_refresh=0 / rc_lookahead=60 / rc=2pass / mbtree=1 / bitrate=6995 / ratetol=1.0 / qcomp=0.60 / qpmin=0 / qpmax=69 / qpstep=4 / cplxblur=20.0 / qblur=0.5 / ip_ratio=1.40 / aq=1:1.00
Default : Yes
Forced : No

Audio
ID : 2
Format : AC-3
Format/Info : Audio Coding 3
Mode extension : CM (complete main)
Format settings, Endianness : Big
Codec ID : A_AC3
Duration : 43mn 23s
Bit rate mode : Constant
Bit rate : 192 Kbps
Channel(s) : 2 channels
Channel positions : Front: L R
Sampling rate : 48.0 KHz
Bit depth : 16 bits
Compression mode : Lossy
Stream size : 59.6 MiB (3%)
Default : Yes
Forced : No



   Похожие торренты   Торрент   Размер 
В этой теме нет новых непрочитанных сообщений. Дикая природа Японии / Wildes Japan (2010) HDRip от R.G.RealMT | P1

4 | 3

1.36 ГБ

В этой теме нет новых непрочитанных сообщений. Дикая природа Японии / Wildes Japan (2010) BDRip 1080i | P1

90 | 17

13.43 ГБ

В этой теме нет новых непрочитанных сообщений. Дикая природа Скандинавии / Wildes Skandinavien [01-07 из 07] (2011) HDRip от R.G.RealMT

3 | 38

4.91 ГБ

В этой теме нет новых непрочитанных сообщений. Дикая природа Скандинавии / Wildes Skandinavien / Wild Scandinavia [01-07 из 07] (2011) BDRip 720p

0 | 2

15.89 ГБ

В этой теме нет новых непрочитанных сообщений. Дикая природа Скандинавии / Wildes Skandinavien [01-07 из 07] (2011) BDRip-AVC от ExKinoRay

2 | 5

8.18 ГБ

В этой теме нет новых непрочитанных сообщений. Дикая природа Скандинавии / Wildes Skandinavien [01-07 из 07] (2011) BDRip от ExKinoRay

2 | 7

4.44 ГБ

В этой теме нет новых непрочитанных сообщений. Дикая природа Германии / Wildes Deutschland (2011/2012) BDRip 1080p от HDCLUB

74 | 54

58.43 ГБ




Вы не можете начинать темы
Вы не можете отвечать на сообщения
Вы не можете редактировать свои сообщения
Вы не можете удалять свои сообщения
Вы не можете добавлять вложения

Перейти:  
Для Мосгорсуда, Роскомнадзора и рекламодателей: mosgorsud-torrent[собачка]yandex.ru
 Вход
ppkBB3cker v.2 © 2008-2014 @ PPK
[ Time : 0.036s | 15 Queries | GZIP : Off ]

cron