img image001 image001 image001 image001 image001 image001 image001 image001 image001 image001 image001 image001 image001 image001 image001

Planets Sun Sun Sun
Статистика раздачи
Автор: Снежана | Размер: 2.6 ГБ | Добавлен: 25 июл 2013
Раздают: 5    Качают: 3
Скачать торрент
Скачать торрент
Описание торрента

СообщениеДобавлено: 25 июл 2013 

#77

Год выпуска: 2011
Страна: Германия / New KSM
Жанр: документальный
Продолжительность: 00:52:26 + 00:53:55 + 00:55:18
Перевод: Профессиональный(дублированный) Кармен Видео

Режиссёр: Норберт Вандер / Norbert Vander
Сценарий: Норберт Вандер / Norbert Vander

Описание:
Фильм рассказывает об удивительных фактах флоры и фауны уникальных Азорских островов и отправляет зрителя в путешествие по местам отдыха акул, китов, гигантских морских скатов и огромных стай всевозможных рыб. Архипелаг, состоящий из семи островов в середине Атлантического океана, на полпути между континентами Европы и Америки, завораживает уникальным пейзажем, сочетающим черноту застывшей лавы, синеву озер, заполнивших кратеры вулканов и буйство красок экзотических растений. Азоры – это настоящий рай для любителей дайвинга и последний нетронутый уголок Европы. Живой 3D-формат подарит вам волшебные моменты и полное ощущение присутствия в одном из красивейших уголков мира.

Качество: HDRip
Формат:AVI
Видео кодек: XviD
Аудио кодек: MP3
Видео: 16:9, 2100 Кбит/сек, 720x400, 23,976 кадра/сек
Аудио: MP3, 2 канала, 192 Кбит/сек, 48,0 КГц

Часть 1 Азорские острова 3D: Акулы, киты, манты (Azoren: Unterwasser)
Фильм рассказывает об удивительных фактах флоры и фауны уникальных Азорских островов и отправляет зрителя в путешествие по местам отдыха акул, китов, гигантских морских скатов и огромных стай всевозможных рыб. Архипелаг, состоящий из семи островов в середине Атлантического океана, на полпути между континентами Европы и Америки, завораживает уникальным пейзажем, сочетающим черноту застывшей лавы, синеву озер, заполнивших кратеры вулканов и буйство красок экзотических растений. Азоры - это настоящий рай для любителей дайвинга и последний нетронутый уголок Европы.
Часть 2 Азорские острова 3D: Открыватели (Исследователи), киты, вулканы (Azoren: Uberwasser)
Азорские острова долго оставались затерянным уголком в середине Атлантики. Здесь останавливались суда на пути в Америку, чтобы пополнить запасы. Долгое время Азоры были популярны благодаря процветающей здесь охоте на китов, но когда в 1980 году охота была запрещена, острова вновь погрузились в более чем вековой сон. Именно благодаря этому они остались последним нетронутым уголком дикой природы в Европе. Второй фильм из серии «Азоры 3D» рассказывает удивительные истории и мифы, таящиеся в древних вулканах, показывает живописные деревушки, знакомит с прекрасной природой Азор. Не пропустите это увлекательное знакомство с последним райским уголком Старого Света.
Часть 3 Азорские острова 3D: Люди, фауна, образ жизни (уклад жизни) (Azoren: Impressionen)
Азорские острова – мечта для любителей дикой природы. Острова вулканического происхождения представляют собой затейливый комплекс с маленькими бухточками, живописными заливами и чудесными видами. Третья часть фильма об уникальных Азорах, созданная также в живом 3D-формате, гарантирует вам полный «эффект погружения» - вы исследуете загадочные пещеры, образовавшиеся из застывшей лавы, изучите уникальный подводный мир островов, насладитесь живописным ландшафтом и, безусловно, влюбитесь в этот последний райский уголок Европы. Вы познакомитесь с дружелюбными людьми, которые населяют архипелаг, узнаете их быт, проникнитесь их неспешным образом жизни. Знакомство с Азорами подарит вам незабываемые впечатления.







Общее
Полное имя : D:AzoresAzores.Part.1.2011.[R.G.RealMT].avi
Формат : AVI
Формат/Информация : Audio Video Interleave
Размер файла : 863 Мбайт
Продолжительность : 52 м.
Общий поток : 2301 Кбит/сек
Программа кодирования : VirtualDubMod 1.5.10.3 | www.virtualdub-fr.org || (build 2550/release)
Библиотека кодирования : VirtualDubMod build 2550/release

Видео
Идентификатор : 0
Формат : MPEG-4 Visual
Профиль формата : Advanced Simple@L5
Параметр BVOP формата : 2
Параметр QPel формата : Нет
Параметр GMC формата : Без точки перехода
Параметр матрицы формата : Default (H.263)
Режим смешивания : Сжатый битовый поток
Идентификатор кодека : XVID
Идентификатор кодека/Подсказка : XviD
Продолжительность : 52 м.
Битрейт : 2100 Кбит/сек
Ширина : 720 пикселей
Высота : 400 пикселей
Соотношение сторон : 16:9
Частота кадров : 23,976 кадра/сек
Цветовое пространство : YUV
Субдискретизация насыщенности : 4:2:0
Битовая глубина : 8 бит
Тип развёртки : Прогрессивная
Метод сжатия : С потерями
Бит/(Пиксели*Кадры) : 0.304
Размер потока : 788 Мбайт (91%)
Библиотека кодирования : XviD 1.2.1 (UTC 2008-12-04)

Аудио
Идентификатор : 1
Формат : MPEG Audio
Версия формата : Version 1
Профиль формата : Layer 3
Идентификатор кодека : 55
Идентификатор кодека/Подсказка : MP3
Продолжительность : 52 м.
Вид битрейта : Постоянный
Битрейт : 192 Кбит/сек
Каналы : 2 канала
Частота : 48,0 КГц
Метод сжатия : С потерями
Размер потока : 72,0 Мбайт (8%)
Выравнивание : Соединение по промежуткам
Продолжительность промежутка : 42 мс. (1,00 видеокадр)
Время предзагрузки промежутка : 504 мс.
Библиотека кодирования : LAME3.99r
Настройки программы : -m s -V 4 -q 2 -lowpass 18.6 -b 192

Общее
Полное имя : D:AzoresAzores.Part.2.2011.[R.G.RealMT].avi
Формат : AVI
Формат/Информация : Audio Video Interleave
Размер файла : 888 Мбайт
Продолжительность : 53 м.
Общий поток : 2301 Кбит/сек
Программа кодирования : VirtualDubMod 1.5.10.3 | www.virtualdub-fr.org || (build 2550/release)
Библиотека кодирования : VirtualDubMod build 2550/release

Видео
Идентификатор : 0
Формат : MPEG-4 Visual
Профиль формата : Advanced Simple@L5
Параметр BVOP формата : 2
Параметр QPel формата : Нет
Параметр GMC формата : Без точки перехода
Параметр матрицы формата : Default (H.263)
Режим смешивания : Сжатый битовый поток
Идентификатор кодека : XVID
Идентификатор кодека/Подсказка : XviD
Продолжительность : 53 м.
Битрейт : 2100 Кбит/сек
Ширина : 720 пикселей
Высота : 400 пикселей
Соотношение сторон : 16:9
Частота кадров : 23,976 кадра/сек
Цветовое пространство : YUV
Субдискретизация насыщенности : 4:2:0
Битовая глубина : 8 бит
Тип развёртки : Прогрессивная
Метод сжатия : С потерями
Бит/(Пиксели*Кадры) : 0.304
Размер потока : 810 Мбайт (91%)
Библиотека кодирования : XviD 1.2.1 (UTC 2008-12-04)

Аудио
Идентификатор : 1
Формат : MPEG Audio
Версия формата : Version 1
Профиль формата : Layer 3
Идентификатор кодека : 55
Идентификатор кодека/Подсказка : MP3
Продолжительность : 53 м.
Вид битрейта : Постоянный
Битрейт : 192 Кбит/сек
Каналы : 2 канала
Частота : 48,0 КГц
Метод сжатия : С потерями
Размер потока : 74,1 Мбайт (8%)
Выравнивание : Соединение по промежуткам
Продолжительность промежутка : 42 мс. (1,00 видеокадр)
Время предзагрузки промежутка : 504 мс.
Библиотека кодирования : LAME3.99r
Настройки программы : -m s -V 4 -q 2 -lowpass 18.6 -b 192

Общее
Полное имя : D:AzoresAzores.Part.3.2011.[R.G.RealMT].avi
Формат : AVI
Формат/Информация : Audio Video Interleave
Размер файла : 910 Мбайт
Продолжительность : 55 м.
Общий поток : 2301 Кбит/сек
Программа кодирования : VirtualDubMod 1.5.10.3 | www.virtualdub-fr.org || (build 2550/release)
Библиотека кодирования : VirtualDubMod build 2550/release

Видео
Идентификатор : 0
Формат : MPEG-4 Visual
Профиль формата : Advanced Simple@L5
Параметр BVOP формата : 2
Параметр QPel формата : Нет
Параметр GMC формата : Без точки перехода
Параметр матрицы формата : Default (H.263)
Режим смешивания : Сжатый битовый поток
Идентификатор кодека : XVID
Идентификатор кодека/Подсказка : XviD
Продолжительность : 55 м.
Битрейт : 2100 Кбит/сек
Ширина : 720 пикселей
Высота : 400 пикселей
Соотношение сторон : 16:9
Частота кадров : 23,976 кадра/сек
Цветовое пространство : YUV
Субдискретизация насыщенности : 4:2:0
Битовая глубина : 8 бит
Тип развёртки : Прогрессивная
Метод сжатия : С потерями
Бит/(Пиксели*Кадры) : 0.304
Размер потока : 831 Мбайт (91%)
Библиотека кодирования : XviD 1.2.1 (UTC 2008-12-04)

Аудио
Идентификатор : 1
Формат : MPEG Audio
Версия формата : Version 1
Профиль формата : Layer 3
Идентификатор кодека : 55
Идентификатор кодека/Подсказка : MP3
Продолжительность : 55 м.
Вид битрейта : Постоянный
Битрейт : 192 Кбит/сек
Каналы : 2 канала
Частота : 48,0 КГц
Метод сжатия : С потерями
Размер потока : 76,0 Мбайт (8%)
Выравнивание : Соединение по промежуткам
Продолжительность промежутка : 42 мс. (1,00 видеокадр)
Время предзагрузки промежутка : 504 мс.
Библиотека кодирования : LAME3.99r
Настройки программы : -m s -V 4 -q 2 -lowpass 18.6 -b 192


Релиз от: R.G.RealMT



   Похожие торренты   Торрент   Размер 
В этой теме нет новых непрочитанных сообщений. Азорские острова. Часть 2: Киты, вулканы, открыватели / Azores 3D: Sharks, Whales, Manta Rays (2011) HDRip от ExKinoRay

3 | 2

700.6 МБ

В этой теме нет новых непрочитанных сообщений. Азорские острова. Часть 1: Акулы, киты, манты / Azores: Sharks, Whales, Manta Rays (2011) HDRip от ExKinoRay

5 | 4

870.16 МБ

В этой теме нет новых непрочитанных сообщений. Азорские острова. Часть 3: Фауна, люди, образ жизни / Azores: People, Fauna, Lifestyle (2011) HDRip от ExKinoRay

13 | 2

700.42 МБ

В этой теме нет новых непрочитанных сообщений. Азорские острова. Часть 3: Фауна, люди, образ жизни / Azores: People, Fauna, Lifestyle (2011) BDRip 1080p

1 | 12

3.84 ГБ

В этой теме нет новых непрочитанных сообщений. Азорские острова. Часть 1: Акулы, киты, манты / Azores: Explorers, Whales & Vulcanos (2012) BDRip 720р

1 | 2

3.29 ГБ

В этой теме нет новых непрочитанных сообщений. Азорские острова. Часть 2: Киты, вулканы, открыватели / Azores: Explorers, Whales & Vulcanos (2012) BDRip 1080p

3 | 1

2.64 ГБ

В этой теме нет новых непрочитанных сообщений. Азорские острова. Часть 2: Киты, вулканы, открыватели / Azores 3D: Explorers, Whales & Vulcanos (2012) BD3D 1080p | 3D-Video

3 | 2

15.27 ГБ




Вы не можете начинать темы
Вы не можете отвечать на сообщения
Вы не можете редактировать свои сообщения
Вы не можете удалять свои сообщения
Вы не можете добавлять вложения

Перейти:  
Для Мосгорсуда, Роскомнадзора и рекламодателей: mosgorsud-torrent[собачка]yandex.ru
 Вход
ppkBB3cker v.2 © 2008-2014 @ PPK
[ Time : 0.635s | 17 Queries | GZIP : Off ]

Торрент трекер RUTOR.IN, Не можете зайти на rutor.org? Какой новый адрес рутор? Какое зеркало рутор? Не работает rutor.org и зеркала? Тогда наш торрент специально для вас. Rutor.in неофициальное зеркало rutor. В случае если у Вас заблокирован rutor или вдруг Вы не можете на него зайти, то Вы без труда сможете скачать бесплатно и без рекламы последние новинки кино, игр, сериалов и прочего у нас, на Rutor.in. Не нужно использовать прокси, чтобы зайти на рутор, достаточно воспользоваться нашим ресурсом. Все новые фильмы, игры, сериалы, книги и музыка за 2013 и 2014 годы через торрент бесплатно. Скачивайте фильмы в хорошем качестве, игры для пк, xbox, playstation без регистрации. У нас вы найдете новые Зарубежные сериалы и Русские сериалы 2013, 2014, 2015 годов. Оставайтесь с нами, качайте любимые фильмы, игры, сериалы, книги и музыку.