img image001 image001 image001 image001 image001 image001 image001 image001 image001 image001 image001 image001 image001 image001 image001

Planets Sun Sun Sun
Статистика раздачи
Автор: Снежана | Размер: 7.95 ГБ | Добавлен: 25 июл 2013
Раздают: 74    Качают: 8
Скачать торрент
Скачать торрент
Описание торрента

СообщениеДобавлено: 25 июл 2013 

Орбита: Необыкновенное путешествие планеты Земля

Orbit: Earth's Extraordinary Journey




#77
Год выпуска: 2012
Страна: Великобритания
Жанр: документальный
Продолжительность: 00:48:13 + 00:49:44 + 00:49:05
Перевод: Профессиональный (двухголосый закадровый)

Режиссер: Чарльз Колвилл, Arif Nurmohamed, Дик Тейлор
Сценарий: -
Продюсер: Стивен Марш, Джонатан Ренуф
Оператор: Paul Kirsop, Майк Гарнер
Композитор: Ти Унвин
Монтаж: Мартин Джонсон

В ролях: Кэти Хамбл / Kate Humble (играет саму себя - Presenter), Helen Czerski (играет саму себя - Presenter), Georg Utuaq (играет самого себя - Greenland Guide), Blair Weatherby (играет самого себя - Ice Road Trucker), Nick Drake (играет самого себя - Geographer), Honza Rejmanek (играет самого себя - Paraglider), Mike Theiss (играет самого себя - Expert), Джошуа Вурман / Joshua Wurman (играет самого себя)


Описание: В течение большей части истории человечества сама концепция движения нашей планеты вызывала большие сомнения. Считалось, что Земля расположена в центре мироздания, а всё остальное движется вокруг неё. И когда выяснилось, что, на самом деле, именно Земля вращается вокруг Солнца, ответы на многие таинственные вопросы были найдены…

Премьера (мир): 4 марта 2012, ...


Качество: BDRip
Формат: MKV
Видео кодек: AVC
Аудио кодеk: AC3
Видео: 1920x1080 (16:9), 25.000 fps, AVC, 7 910 Kbps
Аудио #1: AC3, 192 Kbps, 48.0 KHz, 2 ch (RUS DVO)
Аудио #2: AC3, 384 Kbps, 48.0 KHz, 5 ch (English)




Логи проходов:
Е.1)
-[NoImage] x264 [info]: frame I:434 Avg QP:16.60 size:128454
-[NoImage] x264 [info]: frame P:16615 Avg QP:19.43 size: 55052
-[NoImage] x264 [info]: frame B:55300 Avg QP:21.76 size: 25224

Е.2)
-[NoImage] x264 [info]: frame I:462 Avg QP:17.77 size:137203
-[NoImage] x264 [info]: frame P:19048 Avg QP:20.69 size: 65509
-[NoImage] x264 [info]: frame B:55114 Avg QP:22.93 size: 29736

Е3)
-[NoImage] x264 [info]: frame I:452 Avg QP:17.03 size:137186
-[NoImage] x264 [info]: frame P:17974 Avg QP:19.60 size: 58239
-[NoImage] x264 [info]: frame B:55205 Avg QP:21.88 size: 26787

General
Complete name : Е1.Pathway ; Е2.Spin ; Е3.Tilt.mkv
Format : Matroska
File size : 2.95 GiB
Duration : 49mn 44s
Overall bit rate : 8 485 Kbps
Encoded date : UTC 2013-04-06 07:44:18
Writing application : mkvmerge v5.3.0 ('I could have danced') built on Feb 9 2012 10:38:07
Writing library : libebml v1.2.3 + libmatroska v1.3.0

Video
ID : 1
Format : AVC
Format/Info : Advanced Video Codec
Format profile : High@L4.1
Format settings, CABAC : Yes
Format settings, ReFrames : 4 frames
Muxing mode : Container profile=Unknown@4.1
Codec ID : V_MPEG4/ISO/AVC
Duration : 49mn 44s
Bit rate : 6 544 Kbps + 7 910 Kbps + 7 033 Kbps
Width : 1 920 pixels
Height : 1 080 pixels
Display aspect ratio : 16:9
Frame rate : 25.000 fps
Color space : YUV
Chroma subsampling : 4:2:0
Bit depth : 8 bits
Scan type : Progressive
Bits/(Pixel*Frame) : 0.153
Stream size : 2.69 GiB (91%)
Writing library : x264 core 129 r2230 1cffe9f
Encoding settings : cabac=1 / ref=4 / deblock=1:-1:-1 / analyse=0x3:0x133 / me=umh / subme=10 / psy=1 / psy_rd=1.00:0.00 / mixed_ref=1 / me_range=32 / chroma_me=1 / trellis=2 / 8x8dct=1 / cqm=0 / deadzone=21,11 / fast_pskip=0 / chroma_qp_offset=-2 / threads=6 / lookahead_threads=1 / sliced_threads=0 / nr=0 / decimate=1 / interlaced=0 / bluray_compat=0 / constrained_intra=0 / bframes=8 / b_pyramid=2 / b_adapt=2 / b_bias=0 / direct=3 / weightb=1 / open_gop=0 / weightp=2 / keyint=250 / keyint_min=25 / scenecut=40 / intra_refresh=0 / rc=2pass / mbtree=0 / bitrate=7910 / ratetol=2.0 / qcomp=1.00 / qpmin=0 / qpmax=51 / qpstep=4 / cplxblur=20.0 / qblur=0.5 / ip_ratio=1.40 / pb_ratio=1.30 / aq=1:1.00
Color primaries : BT.709-5, BT.1361, IEC 61966-2-4, SMPTE RP177
Transfer characteristics : BT.709-5, BT.1361
Matrix coefficients : BT.709-5, BT.1361, IEC 61966-2-4 709, SMPTE RP177

Audio #1
ID : 2
Format : AC-3
Format/Info : Audio Coding 3
Mode extension : CM (complete main)
Codec ID : A_AC3
Duration : 49mn 44s
Bit rate mode : Constant
Bit rate : 192 Kbps
Channel(s) : 2 channels
Channel positions : Front: L R
Sampling rate : 48.0 KHz
Bit depth : 16 bits
Stream size : 68.3 MiB (2%)
Language : Russian

Audio #2
ID : 3
Format : AC-3
Format/Info : Audio Coding 3
Mode extension : CM (complete main)
Codec ID : A_AC3
Duration : 49mn 44s
Bit rate mode : Constant
Bit rate : 384 Kbps
Channel(s) : 5 channels
Channel positions : Front: L C R, Side: L R
Sampling rate : 48.0 KHz
Bit depth : 16 bits
Stream size : 137 MiB (5%)

Menu
00:00:00.000 : en:00:00:00.000
00:05:39.360 : en:00:05:39.360
00:11:36.000 : en:00:11:36.000
00:18:19.680 : en:00:18:19.680
00:24:33.600 : en:00:24:33.600
00:30:47.040 : en:00:30:47.040
00:36:32.640 : en:00:36:32.640
00:42:56.640 : en:00:42:56.640



Эпизоды
#1.1 Траектория движения Земли / Pathway (04.03.2012)
#1.2 Вращение Земли / Spin (11.03.2012)
#1.3 Наклон земной оси / Tilt (18.03.2012)





Релиз от:



   Похожие торренты   Торрент   Размер 
В этой теме нет новых непрочитанных сообщений. BBC: Орбита: Необыкновенное путешествие планеты Земля / BBC: Orbit: Earth's Extraordinary Journey [01-03 из 03] (2012) BDRip 720p

4 | 24

5.99 ГБ

В этой теме нет новых непрочитанных сообщений. Орбита: Необыкновенное путешествие планеты Земля / BBC: Orbit: Earth's Extraordinary Journey [01-03 из 03] (2012) HDRip от R.G.RealMT

28 | 5

2.36 ГБ

В этой теме нет новых непрочитанных сообщений. Путешествие к Центру Земли / Journey to the Center of the Earth (2008) BDRip 1080p от Freeisland

555 | 6

4.37 ГБ

В этой теме нет новых непрочитанных сообщений. Путешествие к Центру Земли / Journey to the Center of the Earth (2008) BDRip от Freeisland

9 | 3

12.04 ГБ

В этой теме нет новых непрочитанных сообщений. Путешествие 2: Таинственный остров / Journey 2: The Mysterious Island (2012) BDRip 1080p от FREEISLAND | лицензия

21 | 8

4.37 ГБ

В этой теме нет новых непрочитанных сообщений. Побег с планеты Земля / Escape from Planet Earth (2013) BDRip 1080p

58 | 7

4.37 ГБ

В этой теме нет новых непрочитанных сообщений. Побег с планеты Земля / Escape from Planet Earth (2013) BDRip 1080p

70 | 7

7.64 ГБ




Вы не можете начинать темы
Вы не можете отвечать на сообщения
Вы не можете редактировать свои сообщения
Вы не можете удалять свои сообщения
Вы не можете добавлять вложения

Перейти:  
Для Мосгорсуда, Роскомнадзора и рекламодателей: mosgorsud-torrent[собачка]yandex.ru
 Вход
ppkBB3cker v.2 © 2008-2014 @ PPK
[ Time : 0.053s | 14 Queries | GZIP : Off ]

Торрент трекер RUTOR.IN, Не можете зайти на rutor.org? Какой новый адрес рутор? Какое зеркало рутор? Не работает rutor.org и зеркала? Тогда наш торрент специально для вас. Rutor.in неофициальное зеркало rutor. В случае если у Вас заблокирован rutor или вдруг Вы не можете на него зайти, то Вы без труда сможете скачать бесплатно и без рекламы последние новинки кино, игр, сериалов и прочего у нас, на Rutor.in. Не нужно использовать прокси, чтобы зайти на рутор, достаточно воспользоваться нашим ресурсом. Все новые фильмы, игры, сериалы, книги и музыка за 2013 и 2014 годы через торрент бесплатно. Скачивайте фильмы в хорошем качестве, игры для пк, xbox, playstation без регистрации. У нас вы найдете новые Зарубежные сериалы и Русские сериалы 2013, 2014, 2015 годов. Оставайтесь с нами, качайте любимые фильмы, игры, сериалы, книги и музыку.