img image001 image001 image001 image001 image001 image001 image001 image001 image001 image001 image001 image001 image001 image001 image001

Planets Sun Sun Sun
Статистика раздачи
Автор: Снежана | Размер: 2.36 ГБ | Добавлен: 25 июл 2013
Раздают: 28    Качают: 5
Скачать торрент
Скачать торрент
Описание торрента

СообщениеДобавлено: 25 июл 2013 

#77

Год выпуска: 2012
Страна: Великобритания
Жанр: документальный
Продолжительность: 00:48:13 + 00:49:44 + 00:49:05
Перевод: Профессиональный (двухголосый закадровый)

Режиссер: Чарльз Колвилл, Arif Nurmohamed, Дик Тейлор

В ролях:
Кэти Хамбл / Kate Humble , Helen Czerski , Georg Utuaq , Blair Weatherby , Nick Drake , Honza Rejmanek , Mike Theiss , Джошуа Вурман / Joshua Wurman

Описание: В течение большей части истории человечества сама концепция движения нашей планеты вызывала большие сомнения. Считалось, что Земля расположена в центре мироздания, а всё остальное движется вокруг неё. И когда выяснилось, что, на самом деле, именно Земля вращается вокруг Солнца, ответы на многие таинственные вопросы были найдены…



Качество: HDRip (исходник BDRip 1080p)
Формат:AVI
Видео кодек: XviD
Аудио кодек: MP3
Видео: 16:9, 2100 Кбит/сек, 720x400, 25,000 кадров/сек
Аудио: MP3, 2 канала, 192 Кбит/сек, 48,0 КГц

1.1 Траектория движения Земли / Pathway (04.03.2012)
1.2 Вращение Земли / Spin (11.03.2012)
1.3 Наклон земной оси / Tilt (18.03.2012)







Общее
Полное имя : D:Orbit_Earth's.Extraordinary.JourneyЕ1.Pathway [R.G.RealMT] .avi
Формат : AVI
Формат/Информация : Audio Video Interleave
Размер файла : 794 Мбайт
Продолжительность : 48 м.
Общий поток : 2301 Кбит/сек
Программа кодирования : VirtualDubMod 1.5.10.3 | www.virtualdub-fr.org || (build 2550/release)
Библиотека кодирования : VirtualDubMod build 2550/release

Видео
Идентификатор : 0
Формат : MPEG-4 Visual
Профиль формата : Advanced Simple@L5
Параметр BVOP формата : 2
Параметр QPel формата : Нет
Параметр GMC формата : Без точки перехода
Параметр матрицы формата : Default (H.263)
Режим смешивания : Сжатый битовый поток
Идентификатор кодека : XVID
Идентификатор кодека/Подсказка : XviD
Продолжительность : 48 м.
Битрейт : 2100 Кбит/сек
Ширина : 720 пикселей
Высота : 400 пикселей
Соотношение сторон : 16:9
Частота кадров : 25,000 кадров/сек
Цветовое пространство : YUV
Субдискретизация насыщенности : 4:2:0
Битовая глубина : 8 бит
Тип развёртки : Прогрессивная
Метод сжатия : С потерями
Бит/(Пиксели*Кадры) : 0.292
Размер потока : 724 Мбайт (91%)
Библиотека кодирования : XviD 1.2.1 (UTC 2008-12-04)

Аудио
Идентификатор : 1
Формат : MPEG Audio
Версия формата : Version 1
Профиль формата : Layer 3
Идентификатор кодека : 55
Идентификатор кодека/Подсказка : MP3
Продолжительность : 48 м.
Вид битрейта : Постоянный
Битрейт : 192 Кбит/сек
Каналы : 2 канала
Частота : 48,0 КГц
Метод сжатия : С потерями
Размер потока : 66,2 Мбайт (8%)
Выравнивание : Соединение по промежуткам
Продолжительность промежутка : 40 мс. (1,00 видеокадр)
Время предзагрузки промежутка : 504 мс.
Библиотека кодирования : LAME3.99r
Настройки программы : -m s -V 4 -q 2 -lowpass 18.6 -b 192

Релиз от: R.G.RealMT



   Похожие торренты   Торрент   Размер 
В этой теме нет новых непрочитанных сообщений. BBC: Орбита: Необыкновенное путешествие планеты Земля / BBC: Orbit: Earth's Extraordinary Journey [01-03 из 03] (2012) BDRip 720p

4 | 24

5.99 ГБ

В этой теме нет новых непрочитанных сообщений. Орбита: Необыкновенное путешествие планеты Земля / Orbit: Earth's Extraordinary Journey [01-03 из 03] ( 2012 ) BDRip 1080p от Freeisland

74 | 8

7.95 ГБ

В этой теме нет новых непрочитанных сообщений. Первая орбита / The First Orbit (2011) HDRip 1080p

6 | 2

1.92 ГБ

В этой теме нет новых непрочитанных сообщений. Человек с планеты Земля / The Man from Earth (2007) HDRip

138 | 4

745.41 МБ

В этой теме нет новых непрочитанных сообщений. BBC: Как нас создала Земля / BBC: How Earth Made Us [01-05 из 05] (2010) HDRip от R.G.RealMT

4 | 7

4.73 ГБ

В этой теме нет новых непрочитанных сообщений. Эволюция планеты Земля / How The Earth Was Made (2007) HDRip | D

140 | 17

699.36 МБ

В этой теме нет новых непрочитанных сообщений. Человек с планеты Земля / The Man from Earth (2007) HDRip от AndrewWhite

46 | 6

1.36 ГБ




Вы не можете начинать темы
Вы не можете отвечать на сообщения
Вы не можете редактировать свои сообщения
Вы не можете удалять свои сообщения
Вы не можете добавлять вложения

Перейти:  
Для Мосгорсуда, Роскомнадзора и рекламодателей: mosgorsud-torrent[собачка]yandex.ru
 Вход
ppkBB3cker v.2 © 2008-2014 @ PPK
[ Time : 0.052s | 14 Queries | GZIP : Off ]

Торрент трекер RUTOR.IN, Не можете зайти на rutor.org? Какой новый адрес рутор? Какое зеркало рутор? Не работает rutor.org и зеркала? Тогда наш торрент специально для вас. Rutor.in неофициальное зеркало rutor. В случае если у Вас заблокирован rutor или вдруг Вы не можете на него зайти, то Вы без труда сможете скачать бесплатно и без рекламы последние новинки кино, игр, сериалов и прочего у нас, на Rutor.in. Не нужно использовать прокси, чтобы зайти на рутор, достаточно воспользоваться нашим ресурсом. Все новые фильмы, игры, сериалы, книги и музыка за 2013 и 2014 годы через торрент бесплатно. Скачивайте фильмы в хорошем качестве, игры для пк, xbox, playstation без регистрации. У нас вы найдете новые Зарубежные сериалы и Русские сериалы 2013, 2014, 2015 годов. Оставайтесь с нами, качайте любимые фильмы, игры, сериалы, книги и музыку.