img image001 image001 image001 image001 image001 image001 image001 image001 image001 image001 image001 image001 image001 image001 image001

Planets Sun Sun Sun
Статистика раздачи
Автор: Снежана | Размер: 1.12 ГБ | Добавлен: 25 июл 2013
Раздают: 6    Качают: 2
Скачать торрент
Скачать торрент
Описание торрента

СообщениеДобавлено: 25 июл 2013 

#77

Год выпуска: 2013
Страна: Россия
Жанр: Научно-просветительский
Продолжительность: 1:38:16
Перевод: Не требуется
Режиссер: Евгений Артемьев

Описание: Фильм «Воля Вселенной» - уникальная возможность получить информацию из первых рук от находящихся в состоянии повышенного осознания учёных, общественных деятелей и специалистов. Проблемы и пути современного общества рассматриваются в контексте идей просвещения, гуманизма и максимизации жизнеспособности человечества.

Ложное антропоцентрическое Система Миропорядка - основа устойчивого положения властных иерархий, алчных хозяев Мира. Во-вторых, когда снято табу на убийство, и существует лишь видовое ограничение, нет ничего проще убедить граждан что нужно убивать: иноверцев, инакомыслящих, не с тем цветом кожи, недостойных называться людьми, угрожающих национальной безопасности. Этот список можно продолжать..

Иными словами Система получает биороботов, для которых жестокость оправдана и приемлема. Это производство патриотичного "пушечного мяса" для военных авантюр правящих элит. И такое проявление антропоцентризма служит сохранению устойчивого положения Хозяев Мира. Преступная эксплуатация животных - это колоссальные доходы, миллиарды долларов в каждой стране. И достаются эти кровавые деньги, всё тем же хозяевам Мира, при поддержке сторонников сложившегося порядка вещей. Всех вас, кто покупает мясо и мех, добровольно спонсируя властные пирамиды. Именно поэтому, ежесекундно Cистема устами врачей через СМИ, систему образования и религиозные иерархии безсовестно врёт вам о пользе мяса и меха, преследую свои корыстные цели.

В фильме принимают участие:
Леонов Алексей Георгиевич - доктор физико-математических наук, профессор, декан ФПФЭ МФТИ
Малинецкий Георгий Геннадьевич - доктор физико-математических наук, профессор МФТИ, зав. лабораторией ИПМ им. М.В. Келдыша РАН
Ефимов Виктор Алексеевич - доктор экономическихнаук, кандидат технических наук, профессор, ректор СПбГАУ
Новожилова Ирина Юрьевна – президент Центра защиты прав животных «Вита»
Сабинин Константин – руководитель проектов Центра защиты прав животных «Вита»
Москалёв Сергей Эдуардович – футуролог, директор проекта Futura.ru
Арабов Юрий Николаевич – прозаик, поэт, сценарист, культуролог, зав кафедрой драматургии ВГИК им. С.А. Герасимова
Актёры Владимир Ющенко и Антон Бебин

Доп. информация: В делах Земли, в делах человечества смесь разумного с глупым, доброго с жестоким. Зачем нищета, болезни, тюрьмы, злоба, войны, смерть, глупость, невежество...Человек поймёт субъективную непрерывность и Безконечность Жизни каждого кусочка материи. Поймет, что, делая зло другим существам, он делает зло самому себе. Он сообразит, что его личное благо состоит в том, чтобы нигде по всей Вселенной не было никаких страданий и никакого безумия.
Циолковский Константин Эдуардович.

качество: DVDRip
формат: AVI
видеокодек: XviD
аудиокодек: MP3
Видео: 720x400, 1500 kbps, 25 fps
Аудио: 128 Khz, 44.1 KHz, 2 ch

General
Complete name : D:Воля Вселенной (2013).avi
Format : AVI
Format/Info : Audio Video Interleave
File size : 1.12 GiB
Duration : 1h 38mn
Overall bit rate : 1 637 Kbps

Video
ID : 0
Format : MPEG-4 Visual
Format profile : Advanced Simple@L5
Format settings, BVOP : No
Format settings, QPel : No
Format settings, GMC : No warppoints
Format settings, Matrix : Default (H.263)
Codec ID : XVID
Codec ID/Hint : XviD
Duration : 1h 38mn
Bit rate : 1 501 Kbps
Width : 720 pixels
Height : 400 pixels
Display aspect ratio : 16:9
Frame rate : 25.000 fps
Color space : YUV
Chroma subsampling : 4:2:0
Bit depth : 8 bits
Scan type : Progressive
Compression mode : Lossy
Bits/(Pixel*Frame) : 0.209
Stream size : 1.03 GiB (92%)
Writing library : XviD 62

Audio
ID : 1
Format : MPEG Audio
Format version : Version 1
Format profile : Layer 3
Codec ID : 55
Codec ID/Hint : MP3
Duration : 1h 38mn
Bit rate mode : Constant
Bit rate : 128 Kbps
Channel(s) : 2 channels
Sampling rate : 44.1 KHz
Compression mode : Lossy
Stream size : 90.0 MiB (8%)
Alignment : Split accross interleaves
Interleave, duration : 80 ms (2.00 video frames)




   Похожие торренты   Торрент   Размер 
В этой теме нет новых непрочитанных сообщений. Воля Вселенной (2013) HDCAM 720p

34 | 7

4.27 ГБ

В этой теме нет новых непрочитанных сообщений. Воля Вселенной (1988) TVRip

13 | 6

1.37 ГБ

В этой теме нет новых непрочитанных сообщений. Повелители вселенной / Властелины вселенной / Masters of the Universe (1987) BDRip 1080p | P, A

83 | 30

11.93 ГБ

В этой теме нет новых непрочитанных сообщений. Повелители вселенной / Властелины вселенной / Masters of the Universe (1987) BDRip-AVC от olegek70 | P, A

18 | 10

3.68 ГБ

В этой теме нет новых непрочитанных сообщений. Повелители вселенной / Властелины вселенной / Masters of the Universe (1987) BDRemux 1080p | P, A

0 | 14

17.3 ГБ

В этой теме нет новых непрочитанных сообщений. На Краю Вселенной / Далеко во Вселенной / Farscape [S01-04] (1999-2004) BDRip 720p | P

20 | 74

172.04 ГБ

В этой теме нет новых непрочитанных сообщений. Повелители Вселенной / Властелины Вселенной / Masters of the Universe (1987) HDTVRip

0 | 2

4.7 ГБ




Вы не можете начинать темы
Вы не можете отвечать на сообщения
Вы не можете редактировать свои сообщения
Вы не можете удалять свои сообщения
Вы не можете добавлять вложения

Перейти:  
Для Мосгорсуда, Роскомнадзора и рекламодателей: mosgorsud-torrent[собачка]yandex.ru
 Вход
ppkBB3cker v.2 © 2008-2014 @ PPK
[ Time : 0.401s | 14 Queries | GZIP : Off ]

Торрент трекер RUTOR.IN, Не можете зайти на rutor.org? Какой новый адрес рутор? Какое зеркало рутор? Не работает rutor.org и зеркала? Тогда наш торрент специально для вас. Rutor.in неофициальное зеркало rutor. В случае если у Вас заблокирован rutor или вдруг Вы не можете на него зайти, то Вы без труда сможете скачать бесплатно и без рекламы последние новинки кино, игр, сериалов и прочего у нас, на Rutor.in. Не нужно использовать прокси, чтобы зайти на рутор, достаточно воспользоваться нашим ресурсом. Все новые фильмы, игры, сериалы, книги и музыка за 2013 и 2014 годы через торрент бесплатно. Скачивайте фильмы в хорошем качестве, игры для пк, xbox, playstation без регистрации. У нас вы найдете новые Зарубежные сериалы и Русские сериалы 2013, 2014, 2015 годов. Оставайтесь с нами, качайте любимые фильмы, игры, сериалы, книги и музыку.