img image001 image001 image001 image001 image001 image001 image001 image001 image001 image001 image001 image001 image001 image001 image001

Planets Sun Sun Sun
Статистика раздачи
Автор: Снежана | Размер: 12.49 ГБ | Добавлен: 25 июл 2013
Раздают: 12    Качают: 3
Скачать торрент
Скачать торрент
Описание торрента

СообщениеДобавлено: 25 июл 2013 

Жизнь морских обитателей (Морская жизнь)

Fish Life




#77
Год выпуска: 2010
Страна: Франция , Manuel Lefevre
Жанр: Документальный, научно-познавательный, фауна
Продолжительность: 04:57:59
Перевод:Дублированный (Одноголосый женский)
Субтитры:Нет

Режиссер: Мануэль Лефевр

Описание: Океан имеет своих звезд - акул, скатов, дельфинов и китов. Но в его темных глубинах существует также и скромная жизнь, сдержанных и малоизвестных существ. Хотя их роль в подводном театре жизни не менее важна. Отличный рассказ и увлекательные съемки, позволят вам заново открыть для себя подводный мир, секреты его жителей и восхититься его красотой.
Доп. информация: Рип собран в один контейнер , кропотливо подогнан по видео и звуку !






Качество: HDTVRip
Формат: MKV
Видео кодек: AVC
Аудио кодеk: AC3
Видео: 1920x1080 (16:9), 25.000 fps, AVC, 5 810 Kbps
Аудио: AC3, 192 Kbps, 48.0 KHz, 2 ch (RUS Dub)





01. Движение / Motion: Мир морских обитателей - это царство движения, где не существует границ. В то время как одни плавают, другие ходят, ползают и даже используют реактивную тягу..
02. Морские пустыни / Sea Deserts: Люди не воспринимают песок, как место, где бурлит жизнь. Однако он сулит нам немало встреч с животными - как пугающих, так и умилительных, но в любом случае - познавательных...
03. Цветовой код / Colours Code: Подводный мир тропических морей ошеломляет нас многообразием и яркостью цветов. Сказочное зрелище. Но, возможно, у этой феерии красок существует особое предназначение? Может, это какой-то цветовой код?
04. Море любви / A sea Of Love: Что творится в личной жизни морских обитателей? У подводной любви, поражающей своим многообразием, есть немало диковинных граней...
05. Коралловый театр / The Coral Theater: Коралловый риф - это подводный театр жизни, поражающий красотой декораций и причудливостью актеров. Спектакль без начала и без конца, каждое мгновение которого увлекает и завораживает.
06. Подводные опасности / Hazards Of The Sea: Подводный мир многим внушает страх. В воображении некоторых людей его населяют чудовища из мрачных глубин. Но зачастую самые опасные существа те, кто кажутся совсем безобидными...
07. Завоевание пространства / La Conquete de L'espace: Коралловый риф - это единственная природная структура, построенная органическим путем - миллиардами полипов, живущих колониями. На протяжении своей жизни полипы создают известковый скелет из присутствующих в воде минеральных веществ. Скопление этих скелетов и образует коралловый риф. Но как кораллы завоевывают пространство?
08. Невидимки / Les Invisibles: Среди способов выживания невидимость становится настоящим козырем. Оказывается существуют самые разные приемы, позволяющие достичь этой невидимости...
09. Питание / Se Nourrir: Чтобы жить, нужно питаться. На первый взгляд, кажется, что в море это ограничивается тем, что одна рыба съедает другую. Но это не так - в основе пищевой цепи находятся растения. В море они играют неожиданно главную роль.
10. Странные / Les Insolites: Странным является то, что поражает своим необычным, непонятным, неожиданным, вызывающим удивление характером. Некоторые морские животные, действительно, очень странные...
11. Ночной мир / La Monde de La Nuit: Рифовые рыбы особенно активны в течение дня. А какова подводная жизнь, когда наступает ночь?
12. Путешествие к сердцу рифа / Voyage Au Coeur du Recif: Сердце рифа - это мир выпуклостей и впадин, уголков и закоулков с пустынными лабиринтами, нагромождением кораллов, выступами и разломами, коридорами и пещерами, которые питают атавистические страхи, рождают безумные легенды и нескончаемые загадки. На самом деле этот мир мрака может лишь восхитить пытливый ум.


General
Complete name : Fish.Life.2009_2010.HDTVRip.1080.mkv
Format : Matroska
File size : 12.5 GiB
Duration : 4h 57mn
Overall bit rate : 6 003 Kbps
Encoded date : UTC 2013-04-09 16:10:09
Writing application : mkvmerge v6.1.0 ('Old Devil') built on Mar 2 2013 14:32:37
Writing library : libebml v1.3.0 + libmatroska v1.4.0

Video
ID : 1
Format : AVC
Format/Info : Advanced Video Codec
Format profile : High@L4.1
Format settings, CABAC : Yes
Format settings, ReFrames : 5 frames
Muxing mode : Container profile=Unknown@4.1
Codec ID : V_MPEG4/ISO/AVC
Duration : 4h 57mn
Bit rate : 5 810 Kbps
Width : 1 920 pixels
Height : 1 080 pixels
Display aspect ratio : 16:9
Frame rate : 25.000 fps
Color space : YUV
Chroma subsampling : 4:2:0
Bit depth : 8 bits
Scan type : Progressive
Bits/(Pixel*Frame) : 0.112
Stream size : 11.8 GiB (95%)
Writing library : x264 core 130 r2273 b3065e6
Encoding settings : cabac=1 / ref=5 / deblock=1:0:0 / analyse=0x3:0x133 / me=umh / subme=10 / psy=1 / psy_rd=1.00:0.00 / mixed_ref=1 / me_range=32 / chroma_me=1 / trellis=2 / 8x8dct=1 / cqm=0 / deadzone=21,11 / fast_pskip=0 / chroma_qp_offset=-2 / threads=6 / lookahead_threads=1 / sliced_threads=0 / nr=0 / decimate=1 / interlaced=0 / bluray_compat=0 / constrained_intra=0 / bframes=10 / b_pyramid=2 / b_adapt=2 / b_bias=30 / direct=1 / weightb=1 / open_gop=0 / weightp=2 / keyint=250 / keyint_min=25 / scenecut=40 / intra_refresh=0 / rc_lookahead=40 / rc=2pass / mbtree=0 / bitrate=5810 / ratetol=2.0 / qcomp=1.00 / qpmin=0 / qpmax=51 / qpstep=4 / cplxblur=20.0 / qblur=0.5 / vbv_maxrate=40000 / vbv_bufsize=35000 / nal_hrd=vbr / ip_ratio=1.40 / pb_ratio=1.30 / aq=1:1.00
Color primaries : BT.709-5, BT.1361, IEC 61966-2-4, SMPTE RP177
Transfer characteristics : BT.709-5, BT.1361
Matrix coefficients : BT.709-5, BT.1361, IEC 61966-2-4 709, SMPTE RP177

Audio
ID : 2
Format : AC-3
Format/Info : Audio Coding 3
Mode extension : CM (complete main)
Codec ID : A_AC3
Duration : 4h 57mn
Bit rate mode : Constant
Bit rate : 192 Kbps
Channel(s) : 2 channels
Channel positions : Front: L R
Sampling rate : 48.0 KHz
Bit depth : 16 bits
Stream size : 409 MiB (3%)
Title : Дублированный
Language : Russian

Menu
00:00:00.000 : en:Жизнь под водой
00:00:21.460 : en:Движение
00:25:25.640 : en:Морские пустыни
00:50:31.040 : en:Цветовой код
01:15:37.200 : en:Море любви
01:40:14.040 : en:Театр кораллов
02:04:44.340 : en:Опасности в море
02:28:52.640 : en:Борьба за жизненное пространство
02:53:45.680 : en:Невидимые
03:18:44.640 : en:Питание
03:43:26.020 : en:Странные, причудливые и необычные
04:08:13.360 : en:Ночная жизнь
04:32:41.560 : en:В сердце рифа




Релиз от:



   Похожие торренты   Торрент   Размер 
В этой теме нет новых непрочитанных сообщений. Жизнь морских обитателей / Морская жизнь / Fish Life (2009-2010) HDTVRip от R.G.RealMT | D

3 | 1

4.79 ГБ

В этой теме нет новых непрочитанных сообщений. Жизнь морских обитателей / Морская жизнь / Fish Life [01-12] (2009-2010) HDTVRip 720p от ExKinoRay

25 | 18

8.58 ГБ

В этой теме нет новых непрочитанных сообщений. Жизнь велосипедом / Жизнь велосипедиста / Жизненный цикл / Жизненные циклы / Life Cycles (2010) 1080 BDRip

0 | 1

4.13 ГБ

В этой теме нет новых непрочитанных сообщений. Жизнь под водой / Fish Life [01-12 из 12] (2009) HDTVRip-AVC от Тorrent-Хzona

12 | 3

4.16 ГБ

В этой теме нет новых непрочитанных сообщений. Жизнь, как она есть / Life as We Know It (2010) BDRip 1080

1 | 2

8.09 ГБ

В этой теме нет новых непрочитанных сообщений. Жизнь непредсказуема / Неожиданная жизнь / Life Unexpected [S02] (2010-2011) WEB-DL 720p

1 | 3

17.57 ГБ

В этой теме нет новых непрочитанных сообщений. Жизнь непредсказуема / Неожиданная жизнь / Life Unexpected [S02] (2010-2011) WEB-DLRip

59 | 2

6.98 ГБ




Вы не можете начинать темы
Вы не можете отвечать на сообщения
Вы не можете редактировать свои сообщения
Вы не можете удалять свои сообщения
Вы не можете добавлять вложения

Перейти:  
Для Мосгорсуда, Роскомнадзора и рекламодателей: mosgorsud-torrent[собачка]yandex.ru
 Вход
ppkBB3cker v.2 © 2008-2014 @ PPK
[ Time : 0.025s | 14 Queries | GZIP : Off ]

Торрент трекер RUTOR.IN, Не можете зайти на rutor.org? Какой новый адрес рутор? Какое зеркало рутор? Не работает rutor.org и зеркала? Тогда наш торрент специально для вас. Rutor.in неофициальное зеркало rutor. В случае если у Вас заблокирован rutor или вдруг Вы не можете на него зайти, то Вы без труда сможете скачать бесплатно и без рекламы последние новинки кино, игр, сериалов и прочего у нас, на Rutor.in. Не нужно использовать прокси, чтобы зайти на рутор, достаточно воспользоваться нашим ресурсом. Все новые фильмы, игры, сериалы, книги и музыка за 2013 и 2014 годы через торрент бесплатно. Скачивайте фильмы в хорошем качестве, игры для пк, xbox, playstation без регистрации. У нас вы найдете новые Зарубежные сериалы и Русские сериалы 2013, 2014, 2015 годов. Оставайтесь с нами, качайте любимые фильмы, игры, сериалы, книги и музыку.