img image001 image001 image001 image001 image001 image001 image001 image001 image001 image001 image001 image001 image001 image001 image001

Planets Sun Sun Sun
Статистика раздачи
Автор: Снежана | Размер: 1.41 ГБ | Добавлен: 25 июл 2013
Раздают: 2    Качают: 1
Скачать торрент
Скачать торрент
Описание торрента

СообщениеДобавлено: 25 июл 2013 

#77

Информация о фильме
Название: Белый бриллиант / Белый алмаз
Оригинальное название: The White Diamond
Год выхода: 2004
Жанр: Документальный

Режиссер: Вернер Херцог

В ролях:
Вернер Херцог, Грэм Доррингтон, Гётц Дитер Плаге, Адриан де Шрывер, Аннетт Шеерич, Марк Энтони Ихэп, Др. Майкл Уилк, Энтони Мелвилл, Ян-Питер Мивес, Джейсон Гибсон

О фильме:
Что можно с полным правом назвать человеческой жизнью – стремление окопаться во всеобщем представлении о «нормальной человеческой жизни», обзаводясь работой, семьей, домом, машиной и «душевным покоем», или следование своей мечте (той мечте, что будоражит с детства), даже сумасшедшей или нелепой?



Страна: Германия
Продолжительность: 01:27:45
Перевод: Авторский одноголосый (Антон Алексеев)

Качество: HDRip
Формат:AVI
Видео кодек: XviD
Аудио кодек: MP3
Видео: 16:9, 2099 Кбит/сек, 720x400, 29,970 кадров/сек
Аудио: MP3, 2 канала, 192 Кбит/сек, 48,0 КГц



Общее
Полное имя : D:Beliy.brilliant.2004.[R.G.RealMT].avi
Формат : AVI
Формат/Информация : Audio Video Interleave
Размер файла : 1,41 Гбайт
Продолжительность : 1 ч. 27 м.
Общий поток : 2303 Кбит/сек
Программа кодирования : VirtualDubMod 1.5.10.3 | www.virtualdub-fr.org || (build 2550/release)
Библиотека кодирования : VirtualDubMod build 2550/release

Видео
Идентификатор : 0
Формат : MPEG-4 Visual
Профиль формата : Advanced Simple@L5
Параметр BVOP формата : 2
Параметр QPel формата : Нет
Параметр GMC формата : Без точки перехода
Параметр матрицы формата : Default (H.263)
Режим смешивания : Сжатый битовый поток
Идентификатор кодека : XVID
Идентификатор кодека/Подсказка : XviD
Продолжительность : 1 ч. 27 м.
Битрейт : 2099 Кбит/сек
Ширина : 720 пикселей
Высота : 400 пикселей
Соотношение сторон : 16:9
Частота кадров : 29,970 кадров/сек
Цветовое пространство : YUV
Субдискретизация насыщенности : 4:2:0
Битовая глубина : 8 бит
Тип развёртки : Прогрессивная
Метод сжатия : С потерями
Бит/(Пиксели*Кадры) : 0.243
Размер потока : 1,29 Гбайт (91%)
Библиотека кодирования : XviD 1.2.1 (UTC 2008-12-04)

Аудио
Идентификатор : 1
Формат : MPEG Audio
Версия формата : Version 1
Профиль формата : Layer 3
Идентификатор кодека : 55
Идентификатор кодека/Подсказка : MP3
Продолжительность : 1 ч. 27 м.
Вид битрейта : Постоянный
Битрейт : 192 Кбит/сек
Каналы : 2 канала
Частота : 48,0 КГц
Метод сжатия : С потерями
Размер потока : 120 Мбайт (8%)
Выравнивание : Соединение по промежуткам
Продолжительность промежутка : 33 мс. (1,00 видеокадр)
Время предзагрузки промежутка : 504 мс.
Библиотека кодирования : LAME3.99r
Настройки программы : -m s -V 4 -q 2 -lowpass 18.6 -b 192

Релиз от: R.G.RealMT



   Похожие торренты   Торрент   Размер 
В этой теме нет новых непрочитанных сообщений. Белый алмаз / The White Diamond (2004) BDRip 720p | A | HDLine

2 | 2

4.49 ГБ

В этой теме нет новых непрочитанных сообщений. Белый шум, Белый шум 2: Сияние / White Noise, White Noise 2: The Light (2005, 2007) HDDVDRip 720p от NOLIMITS-TEAM

4 | 10

4.32 ГБ

В этой теме нет новых непрочитанных сообщений. Дэйзи Бриллиант / Daisy Diamond (2007) DVDRip | L1, Sub

1719 | 410

1.37 ГБ

В этой теме нет новых непрочитанных сообщений. Дэйзи Бриллиант / Daisy Diamond (2007) DVDRip | Sub

87 | 7

1.46 ГБ

В этой теме нет новых непрочитанных сообщений. Nick Chase and the Deadly Diamond / Ник Чейз и Смертельный Бриллиант (2010) PC

196 | 1

134.79 МБ

В этой теме нет новых непрочитанных сообщений. BBC: Белый медведь - Шпион во льдах / BBC: Polar Bear - Spy on the Ice [01-02 из 02] (2010) HDRip от R.G.RealMT | P1 | Режиссерская версия

31 | 5

1.61 ГБ

В этой теме нет новых непрочитанных сообщений. Белый бизон / Белый буйвол / The White Buffalo (1977) DVDRip от SuperTracer

6 | 4

1.37 ГБ




Вы не можете начинать темы
Вы не можете отвечать на сообщения
Вы не можете редактировать свои сообщения
Вы не можете удалять свои сообщения
Вы не можете добавлять вложения

Перейти:  
Для Мосгорсуда, Роскомнадзора и рекламодателей: mosgorsud-torrent[собачка]yandex.ru
 Вход
ppkBB3cker v.2 © 2008-2014 @ PPK
[ Time : 0.020s | 16 Queries | GZIP : Off ]

Торрент трекер RUTOR.IN, Не можете зайти на rutor.org? Какой новый адрес рутор? Какое зеркало рутор? Не работает rutor.org и зеркала? Тогда наш торрент специально для вас. Rutor.in неофициальное зеркало rutor. В случае если у Вас заблокирован rutor или вдруг Вы не можете на него зайти, то Вы без труда сможете скачать бесплатно и без рекламы последние новинки кино, игр, сериалов и прочего у нас, на Rutor.in. Не нужно использовать прокси, чтобы зайти на рутор, достаточно воспользоваться нашим ресурсом. Все новые фильмы, игры, сериалы, книги и музыка за 2013 и 2014 годы через торрент бесплатно. Скачивайте фильмы в хорошем качестве, игры для пк, xbox, playstation без регистрации. У нас вы найдете новые Зарубежные сериалы и Русские сериалы 2013, 2014, 2015 годов. Оставайтесь с нами, качайте любимые фильмы, игры, сериалы, книги и музыку.