img image001 image001 image001 image001 image001 image001 image001 image001 image001 image001 image001 image001 image001 image001 image001

Planets Sun Sun Sun
Статистика раздачи
Автор: Снежана | Размер: 5.75 ГБ | Добавлен: 25 июл 2013
Раздают: 1    Качают: 2
Скачать торрент
Скачать торрент
Описание торрента

СообщениеДобавлено: 25 июл 2013 

Скрытая красота: История любви, которая питает Землю

Hidden Beauty: A Love Story That Feeds the Earth




#77
Год выпуска: 2011
Страна: США
Жанр: документальный
Продолжительность: 01:17:20
Перевод: Отсутствует
Субтитры: нет

Режиссер: Луис Шварцберг
Сценарий: Луис Шварцберг
Продюсер: Аликс Тидмарш, Grady Candler, Джэйк Эбертс, ...
Оператор: -
Композитор: Marc-George Andersen
Монтаж: Джонатан П. Шоу

В ролях: Мэрил Стрип / Meryl Streep (Актриса, Продюсер)


Описание: Красивая история любви в опасности. Наше будущее зависит от удивительной истории любви между цветами и фауной, состоящей из пчел, бабочек, птиц и летучих мышей, которые способствуют размножению этих видов. Нежные и изящные цветы сами по себе не символ красоты. Напротив, в их ярких цветах и экзотических ароматах так много чудес, которые привлекают опылителей, опьяненных желанием. Это сложный танец соблазнения, в который вовлечены все эти животные и одна треть наших зерновых культур, без которых мы могли бы выжить... Пыльца же представляет нам незамеченных героев глобальной пищевой цепи. Их фантастические миры полны истории, драмы и красоты. В то же время столь хрупкий и находящихся под угрозой баланса планеты, необходимо теперь активно защищать...

Доп. информация: Диск из коллекционного издания African Cats во Франции. Среди бонусов к African Cats, присутствует вот такой французско-американский документальный фильм от DisneyNature...


Зрители: Франция 24.3 тыс.
Премьера (мир): 16 марта 2011
Рейтинг MPAA: Нет возрастных ограничений




Качество: BDRip
Формат: MKV
Видео кодек: AVC
Аудио кодеk: AC3
Видео: 1920x1040 (16:9), 25.000 fps, AVC, 10.2 Mbps
Аудио: AC3, 448 Kbps, 48.0 KHz, 6 ch (French)





Лог :
---[NoImage] x264 [info]: frame I:666 Avg QP:17.68 size:181210
---[NoImage] x264 [info]: frame P:19522 Avg QP:20.46 size: 91435
---[NoImage] x264 [info]: frame B:95812 Avg QP:22.62 size: 41841

General
Complete name : Disney.Nature.Felins.2011.BDRip.1080.mkv
Format : Matroska
File size : 5.75 GiB
Duration : 1h 17mn
Overall bit rate : 10.6 Mbps
Movie name : бонус к African Cats от Disney Nature.
Encoded date : UTC 2013-04-12 08:19:43
Writing application : mkvmerge v6.1.0 ('Old Devil') built on Mar 2 2013 14:32:37
Writing library : libebml v1.3.0 + libmatroska v1.4.0

Video
ID : 1
Format : AVC
Format/Info : Advanced Video Codec
Format profile : High@L4.1
Format settings, CABAC : Yes
Format settings, ReFrames : 4 frames
Muxing mode : Container profile=Unknown@4.1
Codec ID : V_MPEG4/ISO/AVC
Duration : 1h 17mn
Bit rate : 10.2 Mbps
Width : 1 920 pixels
Height : 1 040 pixels
Display aspect ratio : 16:9
Frame rate : 25.000 fps
Color space : YUV
Chroma subsampling : 4:2:0
Bit depth : 8 bits
Scan type : Progressive
Bits/(Pixel*Frame) : 0.205
Stream size : 5.39 GiB (94%)
Writing library : x264 core 130 r2273 b3065e6
Encoding settings : cabac=1 / ref=4 / deblock=1:-1:-1 / analyse=0x3:0x133 / me=umh / subme=10 / psy=1 / psy_rd=1.00:0.00 / mixed_ref=1 / me_range=48 / chroma_me=1 / trellis=2 / 8x8dct=1 / cqm=0 / deadzone=21,11 / fast_pskip=0 / chroma_qp_offset=-2 / threads=6 / lookahead_threads=1 / sliced_threads=0 / nr=0 / decimate=1 / interlaced=0 / bluray_compat=0 / constrained_intra=0 / bframes=10 / b_pyramid=2 / b_adapt=2 / b_bias=30 / direct=1 / weightb=1 / open_gop=0 / weightp=2 / keyint=250 / keyint_min=25 / scenecut=40 / intra_refresh=0 / rc_lookahead=40 / rc=2pass / mbtree=0 / bitrate=10209 / ratetol=2.0 / qcomp=1.00 / qpmin=0 / qpmax=51 / qpstep=4 / cplxblur=20.0 / qblur=0.5 / vbv_maxrate=40000 / vbv_bufsize=48000 / nal_hrd=vbr / ip_ratio=1.40 / pb_ratio=1.30 / aq=1:1.00
Language : French
Color primaries : BT.709-5, BT.1361, IEC 61966-2-4, SMPTE RP177
Transfer characteristics : BT.709-5, BT.1361
Matrix coefficients : BT.709-5, BT.1361, IEC 61966-2-4 709, SMPTE RP177

Audio
ID : 2
Format : AC-3
Format/Info : Audio Coding 3
Mode extension : CM (complete main)
Codec ID : A_AC3
Duration : 1h 17mn
Bit rate mode : Constant
Bit rate : 448 Kbps
Channel(s) : 6 channels
Channel positions : Front: L C R, Side: L R, LFE
Sampling rate : 48.0 KHz
Bit depth : 16 bits
Stream size : 248 MiB (4%)
Language : French





Релиз группы:



   Похожие торренты   Торрент   Размер 
В этой теме нет новых непрочитанных сообщений. Скрытая красота: История любви, которая питает Землю / Hidden Beauty: A Love Story That Feeds the Earth (2011) BDRip от Rulya74

3 | 2

1.15 ГБ

В этой теме нет новых непрочитанных сообщений. Скрытая красота: История любви, которая питает Землю / Hidden Beauty: A Love Story That Feeds the Earth (2011) BDRip-AVC от ExKinoRay

5 | 3

1.72 ГБ

В этой теме нет новых непрочитанных сообщений. Скрытая красота: История любви, которая питает Землю / Hidden Beauty: A Love Story That Feeds the Earth (2011) DVDRip

1 | 1

1.08 ГБ

В этой теме нет новых непрочитанных сообщений. История любви / Love Story (1970) BDRip 1080p от FREEISLAND

29 | 4

7.67 ГБ

В этой теме нет новых непрочитанных сообщений. История любви Тамако / Tamako Love Story (2014) BDRip 1080p | L1

165 | 10

1.15 ГБ

В этой теме нет новых непрочитанных сообщений. Месть: История любви / Vengeance: A Love Story (2017) BDRip 1080p | L

624 | 87

7.89 ГБ

В этой теме нет новых непрочитанных сообщений. Грустная песня любви / Грустная история любви / Безнадежная любовь / Sad Love Song / Sad Love Story / Seulpeun yeonga (2005) TVRip | SUB

389 | 3

7.18 ГБ




Вы не можете начинать темы
Вы не можете отвечать на сообщения
Вы не можете редактировать свои сообщения
Вы не можете удалять свои сообщения
Вы не можете добавлять вложения

Перейти:  
Для Мосгорсуда, Роскомнадзора и рекламодателей: mosgorsud-torrent[собачка]yandex.ru
 Вход
ppkBB3cker v.2 © 2008-2014 @ PPK
[ Time : 0.095s | 14 Queries | GZIP : Off ]

Торрент трекер RUTOR.IN, Не можете зайти на rutor.org? Какой новый адрес рутор? Какое зеркало рутор? Не работает rutor.org и зеркала? Тогда наш торрент специально для вас. Rutor.in неофициальное зеркало rutor. В случае если у Вас заблокирован rutor или вдруг Вы не можете на него зайти, то Вы без труда сможете скачать бесплатно и без рекламы последние новинки кино, игр, сериалов и прочего у нас, на Rutor.in. Не нужно использовать прокси, чтобы зайти на рутор, достаточно воспользоваться нашим ресурсом. Все новые фильмы, игры, сериалы, книги и музыка за 2013 и 2014 годы через торрент бесплатно. Скачивайте фильмы в хорошем качестве, игры для пк, xbox, playstation без регистрации. У нас вы найдете новые Зарубежные сериалы и Русские сериалы 2013, 2014, 2015 годов. Оставайтесь с нами, качайте любимые фильмы, игры, сериалы, книги и музыку.