img image001 image001 image001 image001 image001 image001 image001 image001 image001 image001 image001 image001 image001 image001 image001

Planets Sun Sun Sun
Статистика раздачи
Автор: Снежана | Размер: 2.17 ГБ | Добавлен: 24 июл 2013
Раздают: 2    Качают: 5
Скачать торрент
Скачать торрент
Описание торрента

СообщениеДобавлено: 24 июл 2013 

#77

Год выпуска: 2011
Жанр: Документальный
Выпущено: Великобритания, Pioneer Productions
Продолжительность: 3 х 00:45:00
Перевод: Профессиональный (полное дублирование)

Режиссер: Метт Каррингтон

О фильме:
Европа – место с поразительно разнообразной природой. Она простирается от заснеженного Крайнего Севера до берегов Африки. Этот сериал - эпическая история происхождения Европы, связанная со столкновением континентов, извержением вулканов, ледниковым периодом и даже со столкновением астероида с Землей. Европа - древний континент, известный как колыбель западной цивилизации, чья большая часть как появилась, так и исчезла, а её пейзаж мало изменился за тысячи лет. Наследие человеческой истории маскирует внушающее трепет геологическое прошлое, которое претерпевало постоянные изменения, драматические и порой жестокие. Рожденная в первые дни Земли, Европа постоянно ощущала на себе мощные силы матери-природы. Она была выкована в огне и смята столкновениями континентов, высечена водой и огнем.

Качество: HDRip
Формат:AVI
Видео кодек: XviD
Аудио кодек: MP3
Видео: 16:9, ~2100 Кбит/сек, 720x400, 25,000 кадров/сек
Аудио: MP3, 2 канала, 192 Кбит/сек, 48,0 КГц






1. Вода / Water
Представьте, что вы смотрите на странную незнакомую Землю. Это Европа далекого прошлого. 50 миллионов лет назад Европа выглядела совсем иначе. Главное орудие этой трансформации не тектонические силы, которые крушат и изгибают земную кору, не вулканы, выплевывающие лаву из подземных глубин, а... вода. Знакомая и вездесущая, она украшает европейские рестораны, течет через великие европейские города и лежит замерзшей на европейских склонах гор. Но она может быть не столь мягкой. Это самое мощное оружие в арсенале матери-природы.
-------------------------------------------------------------------------------
2. Столкновение / Collision
Европа - колыбель западной цивилизации. Последние 200 миллионов лет история Европы указывает на её жестокое прошлое. Земля под нами двигается с катастрофическими последствиями. Взрывные извержения разрывают континенты на части. Континенты врезаются друг в друга и образуют горные системы. Смертельно опасные землетрясения встряхивают поверхность. Ни одна сила не играла столь великой роли в рождении Европы, как само движение земли.
-------------------------------------------------------------------------------
3. Огонь / Fire
Европа 4 миллиарда лет назад. Мир лавы и гигантских вулканов. За тысячелетия он остыл и стал той голубой планетой, которую мы знаем. Так была рождена Европа. Но этот континент никогда не переставал развиваться, и сила огня изменяет его по сей день.

Общее
Полное имя : D:National Geographic. Birth of Europe 2011Episode 1. Birth of Europe - Water.[R.G.RealMT].avi
Формат : AVI
Формат/Информация : Audio Video Interleave
Размер файла : 740 Мбайт
Продолжительность : 44 м.
Общий поток : 2299 Кбит/сек
Программа кодирования : VirtualDubMod 1.5.10.3 | www.virtualdub-fr.org || (build 2550/release)
Библиотека кодирования : VirtualDubMod build 2550/release

Видео
Идентификатор : 0
Формат : MPEG-4 Visual
Профиль формата : Advanced Simple@L5
Параметр BVOP формата : 2
Параметр QPel формата : Нет
Параметр GMC формата : Без точки перехода
Параметр матрицы формата : Default (H.263)
Режим смешивания : Сжатый битовый поток
Идентификатор кодека : XVID
Идентификатор кодека/Подсказка : XviD
Продолжительность : 44 м.
Битрейт : 2097 Кбит/сек
Ширина : 720 пикселей
Высота : 400 пикселей
Соотношение сторон : 16:9
Частота кадров : 25,000 кадров/сек
Цветовое пространство : YUV
Субдискретизация насыщенности : 4:2:0
Битовая глубина : 8 бит
Тип развёртки : Прогрессивная
Метод сжатия : С потерями
Бит/(Пиксели*Кадры) : 0.291
Размер потока : 675 Мбайт (91%)
Библиотека кодирования : XviD 1.2.1 (UTC 2008-12-04)

Аудио
Идентификатор : 1
Формат : MPEG Audio
Версия формата : Version 1
Профиль формата : Layer 3
Идентификатор кодека : 55
Идентификатор кодека/Подсказка : MP3
Продолжительность : 44 м.
Вид битрейта : Постоянный
Битрейт : 192 Кбит/сек
Каналы : 2 канала
Частота : 48,0 КГц
Метод сжатия : С потерями
Размер потока : 61,8 Мбайт (8%)
Выравнивание : Соединение по промежуткам
Продолжительность промежутка : 40 мс. (1,00 видеокадр)
Время предзагрузки промежутка : 504 мс.
Библиотека кодирования : LAME3.99r
Настройки программы : -m s -V 4 -q 2 -lowpass 18.6 -b 192

Релиз от: R.G.RealMT



   Похожие торренты   Торрент   Размер 
В этой теме нет новых непрочитанных сообщений. National Geographic - Рождение Солнечной системы / National Geographic - Birth of the solar system (2008) HDTVRip-AVC от Тorrent-Хzona

15 | 5

633.61 МБ

В этой теме нет новых непрочитанных сообщений. National Geographic: Секреты дикой Индии / National Geographic: Secrets of Wild India [01-03 из 03] (2011) HDRip от R.G.RealMT | А

3 | 2

2.32 ГБ

В этой теме нет новых непрочитанных сообщений. National Geographic: Самые опасные акулы / National Geographic: World's Deadliest Sharks (2011) HDTVRip от R.G.RealMT | P1

5 | 3

790.21 МБ

В этой теме нет новых непрочитанных сообщений. National Geographic: Кумбха мела / National Geographic: World's Biggest Festival Kumbh Mela (2013) HDTVRip от R.G.RealMT | P1

0 | 3

738.41 МБ

В этой теме нет новых непрочитанных сообщений. С точки зрения науки: Рождение Земли / National Geographic: Birth of the Earth (2005)TVRip

0 | 164

832.27 МБ

В этой теме нет новых непрочитанных сообщений. С точки зрения науки: Рождение жизни / National Geographic: Birth Of Life (2008) TVRip

0 | 137

832.36 МБ

В этой теме нет новых непрочитанных сообщений. National Geographic : Шесть° градусов могут изменить мир / National Geographic : Six° Degrees Could Change the World (2008) HDRip

5 | 5

749.03 МБ




Вы не можете начинать темы
Вы не можете отвечать на сообщения
Вы не можете редактировать свои сообщения
Вы не можете удалять свои сообщения
Вы не можете добавлять вложения

Перейти:  
Для Мосгорсуда, Роскомнадзора и рекламодателей: mosgorsud-torrent[собачка]yandex.ru
 Вход
ppkBB3cker v.2 © 2008-2014 @ PPK
[ Time : 0.058s | 15 Queries | GZIP : Off ]

Торрент трекер RUTOR.IN, Не можете зайти на rutor.org? Какой новый адрес рутор? Какое зеркало рутор? Не работает rutor.org и зеркала? Тогда наш торрент специально для вас. Rutor.in неофициальное зеркало rutor. В случае если у Вас заблокирован rutor или вдруг Вы не можете на него зайти, то Вы без труда сможете скачать бесплатно и без рекламы последние новинки кино, игр, сериалов и прочего у нас, на Rutor.in. Не нужно использовать прокси, чтобы зайти на рутор, достаточно воспользоваться нашим ресурсом. Все новые фильмы, игры, сериалы, книги и музыка за 2013 и 2014 годы через торрент бесплатно. Скачивайте фильмы в хорошем качестве, игры для пк, xbox, playstation без регистрации. У нас вы найдете новые Зарубежные сериалы и Русские сериалы 2013, 2014, 2015 годов. Оставайтесь с нами, качайте любимые фильмы, игры, сериалы, книги и музыку.
cron