img image001 image001 image001 image001 image001 image001 image001 image001 image001 image001 image001 image001 image001 image001 image001

Planets Sun Sun Sun
Статистика раздачи
Автор: Снежана | Размер: 41.74 ГБ | Добавлен: 25 июл 2013
Раздают: 1    Качают: 4
Скачать торрент
Скачать торрент
Описание торрента

СообщениеДобавлено: 25 июл 2013 

Вселенная / The Universe [S01] (2007) BDRip 720p
Релиз от GYN

«Вековые тайны открываются»
Информация о фильме:
Название: Вселенная
Оригинальное название: The Universe
Год выхода: 2007
Жанр: Документальный, Фантастика, История
Режиссёр: Лаура Верклан / Laura Verklan, Колин Кэмпбелл / Colin Campbell, Тони Лонг / Tony Long
В ролях: Эрик Томпсон / Erik Thompson (рассказчик), Алекс Филиппенко / Alex Filippenko, Лаура Данли / Laura Danly, Клиффорд Джонсон / Clifford Johnson, Нил Тайсон / Neil Tyson, Роб Рой Бритт / Rob Roy Britt, Эми Мейнзер / Amy Mainzer, Доктор Кевин Р. Грейзер / Kevin R. Grazier, Грег Лофлин / Greg Laughlin, Мишель Таллер / Michelle Thaller, Мичио Каку / Michio Kaku, Уильям Хартманн / William Hartmann, Pamela L. Gay, Трэвис С. Тейлор / Travis S. Taylor, Don Figer, Don Yeomans, Nate McCrady, Кевин Бэйнс / Kevin Baines, Джошуа Барнс / Joshua Barnes, Gibor Basri, Бонни Буратти / Bonnie Buratti, Эверетт Гибсон / Everett Gibson, Дэйв Гринспун / Dave Grinspoon, Эндрю Ингерсолл / Andrew Ingersoll, Лоуренс Краусс / Lawrence Krauss, Майкл Лью / Michael Liu, Kenneth Nealson, Jay Pasachoff, Adam Showman, Шон Кэрролл / Sean Carroll
Сюжет фильма:
В этом сериале с помощью современной компьютерной графики и, основываясь на передовых исследованиях в области космоса, создатели фильма смогли воссоздать то, что происходит на других планетах, в других галактиках, вообразить какие формы жизни могли бы развиться в других атмосферах. Вы сможете увидеть космические бедствия, параллельные вселенные, скорость света и узнать многое другое о тайнах космоса.

Страна: США
Продолжительность: 13 x 00:45:00 + 1:29:00
Перевод: Русский профессиональный (двухголосый, закадровый / R5)
Субтитры: Отсутствуют
Информация о файле:
Качество: BDRip 720p
Файл: MKV
Кодек: MPEG-4 AVC, H264 codec
Видео: 1280 x 720, 16:9; 23.976 fps; ~ 8772 kbps; 0.389 bit/pixel
Аудио : 48 kHz, AC3 Dolby Digital, 2.0 (L,R) ch, ~192.00 kbps avg
Размер файла: 13 x 2.78 Gb ; 1 x 5.56 Gb
Общий размер: 41.7 Gb

01: Secrets of the Sun
02: Mars the Red planet
03: The End of the Earth
04: Jupiter - The Giant planet
05: The Moon
06: Spaceship Earth
07: Mercury & Venus. The inner planets
08: Saturn - Lord of the rings
09: Alien Galaxies
10: Life & death of a star
11: Outer planets
12: Most dangerous places
13: Search for E.T.
14: Beyond the Big Bang
Unique ID : 194471189886852457176987683283829508765 (0x924DC9EE4BFAC6B894784F92379FCA9D)
Complete name : D:torrent ZThe.Universe.2007.S01.RUS.BDRip.720p.h264.AC3.-GYNThe.Universe.2007.S01.Alien.Galaxies.mkv
Format : Matroska
Format version : Version 4 / Version 2
File size : 2.78 GiB
Duration : 44mn 26s
Overall bit rate mode : Variable
Overall bit rate : 8 966 Kbps
Movie name : Вселенная / The Universe (2007) [Season 1] Disk 2: Alien Galaxies
Encoded date : UTC 2013-04-10 06:38:23
Writing application : mkvmerge v6.1.0 ('Old Devil') built on Mar 2 2013 14:32:37
Writing library : libebml v1.3.0 + libmatroska v1.4.0
Video
ID : 1
Format : AVC
Format/Info : Advanced Video Codec
Format profile : High@L4.1
Format settings, CABAC : Yes
Format settings, ReFrames : 6 frames
Codec ID : V_MPEG4/ISO/AVC
Duration : 44mn 26s
Bit rate mode : Variable
Bit rate : 8 595 Kbps
Maximum bit rate : 8 772 Kbps
Width : 1 280 pixels
Height : 720 pixels
Display aspect ratio : 16:9
Frame rate : 23.976 fps
Color space : YUV
Chroma subsampling : 4:2:0
Bit depth : 8 bits
Scan type : Progressive
Bits/(Pixel*Frame) : 0.389
Stream size : 2.67 GiB (96%)
Title : Encoded by GYN
Default : Yes
Forced : No
Audio
ID : 2
Format : AC-3
Format/Info : Audio Coding 3
Mode extension : CM (complete main)
Codec ID : A_AC3
Duration : 44mn 26s
Bit rate mode : Constant
Bit rate : 192 Kbps
Channel(s) : 2 channels
Channel positions : Front: L R
Sampling rate : 48.0 KHz
Bit depth : 16 bits
Compression mode : Lossy
Stream size : 61.0 MiB (2%)
Title : DVO (R5)
Language : Russian
Default : Yes
Forced : No
Menu
00:00:00.000 : en:Chapter 00
00:01:33.009 : en:Chapter 01
00:14:50.139 : en:Chapter 02
00:21:48.348 : en:Chapter 03
00:30:37.627 : en:Chapter 04
00:38:35.479 : en:Chapter 05

ПРИЯТНОГО ПРОСМОТРА!



   Похожие торренты   Торрент   Размер 
В этой теме нет новых непрочитанных сообщений. Вселенная / The Universe [s01] (2007) BDRip 720p

6 | 4

21.44 ГБ

В этой теме нет новых непрочитанных сообщений. Вселенная / The Universe [S02] (2007-2008) BDRip 720p от GYN | А

5 | 4

50.09 ГБ

В этой теме нет новых непрочитанных сообщений. Вселенная / The Universe [01x07-14 из 14] (2007) BDRip 720p от Punisher

0 | 2

4.42 ГБ

В этой теме нет новых непрочитанных сообщений. Вселенная / The Universe [01x04 из 14] (2007) BDRip 720p от Punisher

0 | 2

490.68 МБ

В этой теме нет новых непрочитанных сообщений. Вселенная / The Universe [01x05 из 14] (2007) BDRip 720p от Punisher

0 | 2

634.68 МБ

В этой теме нет новых непрочитанных сообщений. Вселенная / The Universe [01x01 из 14] (2007) BDRip 720p от Punisher

0 | 2

606.74 МБ

В этой теме нет новых непрочитанных сообщений. Вселенная / The Universe [01x02 из 14] (2007) BDRip 720p от Punisher

0 | 2

588.74 МБ




Вы не можете начинать темы
Вы не можете отвечать на сообщения
Вы не можете редактировать свои сообщения
Вы не можете удалять свои сообщения
Вы не можете добавлять вложения

Перейти:  
Для Мосгорсуда, Роскомнадзора и рекламодателей: mosgorsud-torrent[собачка]yandex.ru
 Вход
ppkBB3cker v.2 © 2008-2014 @ PPK
[ Time : 0.040s | 14 Queries | GZIP : Off ]

Торрент трекер RUTOR.IN, Не можете зайти на rutor.org? Какой новый адрес рутор? Какое зеркало рутор? Не работает rutor.org и зеркала? Тогда наш торрент специально для вас. Rutor.in неофициальное зеркало rutor. В случае если у Вас заблокирован rutor или вдруг Вы не можете на него зайти, то Вы без труда сможете скачать бесплатно и без рекламы последние новинки кино, игр, сериалов и прочего у нас, на Rutor.in. Не нужно использовать прокси, чтобы зайти на рутор, достаточно воспользоваться нашим ресурсом. Все новые фильмы, игры, сериалы, книги и музыка за 2013 и 2014 годы через торрент бесплатно. Скачивайте фильмы в хорошем качестве, игры для пк, xbox, playstation без регистрации. У нас вы найдете новые Зарубежные сериалы и Русские сериалы 2013, 2014, 2015 годов. Оставайтесь с нами, качайте любимые фильмы, игры, сериалы, книги и музыку.