img image001 image001 image001 image001 image001 image001 image001 image001 image001 image001 image001 image001 image001 image001 image001

Planets Sun Sun Sun
Статистика раздачи
Автор: Снежана | Размер: 701.21 МБ | Добавлен: 25 июл 2013
Раздают: 5    Качают: 2
Скачать торрент
Скачать торрент
Описание торрента

СообщениеДобавлено: 25 июл 2013 

#77


Год выпуска: 2010
Страна: Великобритания, Германия
Студия: KSM & Cascade
Жанр: Документальный, демо, релакс, видовой, путешествие
Продолжительность: 00:53:54
Перевод: Не требуется
Доп. инфо о переводе: (в музыкальном сопровождении)
Субтитры: нет

Режиссер: Жан Люк Беррау / Jean Luke Berrau

Описание: Романтичные Города в HD - ряд фильмов. Париж - город любви! Наверное никто не осмелится поспорить с данным утверждением... Даже те, кто еще не побывал в столице Франции вряд ли будут оспаривать это - слишком много наслышаны о романтической атмосфере самого красивого города Планеты. И это действительно так! Практически любая улочка Парижа пропитана особым настроением, которое располагает к бесконечным прогулкам под плавный аккомпанемент знаменитых французских мелодий. Сама атмосфера Парижа пропитана духом любовных романов начиная от французских королей и современных знаменитостей и заканчивая простыми влюбленными, отдавшими частичку своих сердец этому очаровательному городу. Париж - это лучшее место для романтических свиданий! Наверное только в Париже можно провести самые незабываемые вечера в своей жизни...





Качество: HDRip
Контейнер: AVI
Видео кодек: XviD
Аудио кодек: MP3
Видео: 720x400 (1.80:1), 25 fps, XviD build 50 ~1680 kbps avg, 0.23 bit/pixel
Аудио: 48 kHz, MPEG Layer 3, 2 ch, ~128.00 kbps avg

Релиз от:

D:Romantic City Paris.2010.HDRip by dexter lex.avi
General
Complete name : D:Romantic City Paris.2010.HDRip by dexter lex.avi
Format : AVI
Format/Info : Audio Video Interleave
File size : 701 MiB
Duration : 53mn 54s
Overall bit rate : 1 818 Kbps
Writing application : VirtualDubMod 1.5.10.3 | www.virtualdub-fr.org || (build 2550/release)
Writing library : VirtualDubMod build 2550/release
Video #0
ID : 0
Format : MPEG-4 Visual
Format profile : Advanced Simple@L5
Format settings, BVOP : 1
Format settings, QPel : No
Format settings, GMC : No warppoints
Format settings, Matrix : Custom
Codec ID : XVID
Codec ID/Hint : XviD
Duration : 53mn 54s
Bit rate : 1 680 Kbps
Width : 720 pixels
Height : 400 pixels
Display aspect ratio : 1.80:1
Frame rate : 25.000 fps
Color space : YUV
Chroma subsampling : 4:2:0
Bit depth : 8 bits
Scan type : Progressive
Compression mode : Lossy
Bits/(Pixel*Frame) : 0.233
Stream size : 648 MiB (92%)
Writing library : XviD 1.2.1 (UTC 2008-12-04)
Audio #1
ID : 1
Format : MPEG Audio
Format version : Version 1
Format profile : Layer 3
Codec ID : 55
Codec ID/Hint : MP3
Duration : 53mn 54s
Bit rate mode : Constant
Bit rate : 128 Kbps
Channel(s) : 2 channels
Sampling rate : 48.0 KHz
Compression mode : Lossy
Stream size : 49.4 MiB (7%)
Alignment : Aligned on interleaves
Interleave, duration : 40 ms (1.00 video frame)
Interleave, preload duration : 504 ms
Writing library : LAME3.99r
Encoding settings : -m s -V 4 -q 2 -lowpass 17 -b 128




   Похожие торренты   Торрент   Размер 
В этой теме нет новых непрочитанных сообщений. Романтические города: Карнавал в Венеции / Romantic City: Carnival in Venice (2010) BDRip 720p от ExKinoRay

51 | 2

2.16 ГБ

В этой теме нет новых непрочитанных сообщений. Города мира: Париж / Cities of the World: Paris (2010) DVD5

3 | 12

3.09 ГБ

В этой теме нет новых непрочитанных сообщений. Романтические закаты / Romantic Sunsets (2010) BDRip 1080p

9 | 6

8.25 ГБ

В этой теме нет новых непрочитанных сообщений. Романтические закаты / Romantic sunsets (2010) BDRip-AVC от ExKinoRay

4 | 4

2.14 ГБ

В этой теме нет новых непрочитанных сообщений. Романтические убийцы / Romantic Assassin / Nangman jagaek (2003) DVDRip | L1

0 | 2

1.47 ГБ

В этой теме нет новых непрочитанных сообщений. Города мира: Париж (2010) DVDRip от SilverCinema

8 | 2

698.72 МБ

В этой теме нет новых непрочитанных сообщений. Роз, это Париж / Rose, c'est Paris (2010) DVDRip | Sub

22 | 42

1.47 ГБ




Вы не можете начинать темы
Вы не можете отвечать на сообщения
Вы не можете редактировать свои сообщения
Вы не можете удалять свои сообщения
Вы не можете добавлять вложения

Перейти:  
Для Мосгорсуда, Роскомнадзора и рекламодателей: mosgorsud-torrent[собачка]yandex.ru
 Вход
ppkBB3cker v.2 © 2008-2014 @ PPK
[ Time : 0.840s | 15 Queries | GZIP : On ]

Торрент трекер RUTOR.IN, Не можете зайти на rutor.org? Какой новый адрес рутор? Какое зеркало рутор? Не работает rutor.org и зеркала? Тогда наш торрент специально для вас. Rutor.in неофициальное зеркало rutor. В случае если у Вас заблокирован rutor или вдруг Вы не можете на него зайти, то Вы без труда сможете скачать бесплатно и без рекламы последние новинки кино, игр, сериалов и прочего у нас, на Rutor.in. Не нужно использовать прокси, чтобы зайти на рутор, достаточно воспользоваться нашим ресурсом. Все новые фильмы, игры, сериалы, книги и музыка за 2013 и 2014 годы через торрент бесплатно. Скачивайте фильмы в хорошем качестве, игры для пк, xbox, playstation без регистрации. У нас вы найдете новые Зарубежные сериалы и Русские сериалы 2013, 2014, 2015 годов. Оставайтесь с нами, качайте любимые фильмы, игры, сериалы, книги и музыку.
cron