img image001 image001 image001 image001 image001 image001 image001 image001 image001 image001 image001 image001 image001 image001 image001

Planets Sun Sun Sun
Статистика раздачи
Автор: Снежана | Размер: 847.04 МБ | Добавлен: 25 июл 2013
Раздают: 4    Качают: 2
Скачать торрент
Скачать торрент
Описание торрента

СообщениеДобавлено: 25 июл 2013 

#77

Информация о фильме
Название: Дикая природа Анд
Оригинальное название: Wild Faces of the Andes / Im Schatten der Anden
Год выхода: 2011
Жанр: Документальный
Режиссер: Steffen Sailer

О фильме:
С севера на юг более чем на 7500 километров в длину и порой достигая 7000 метров в высоту, растянулись Анды – самая большая горная цепь в мире. На юге Патагонии Анды покрыты ледниками, в то время как вулканы и соленые озера преобладают на южных плоскогорьях. На западе горные массивы богаты буйной растительностью и необыкновенными лесами, а на востоке расположен Пантанал – самая большая в мире заболоченная низменность. В этом документальном фильме мы отправимся в удивительное путешествие, чтобы исследовать уникальную флору и фауну Анд...

Страна: Германия
Студия: Marco Polo Film AG
Продолжительность: 00:51:27
Перевод: Профессиональный (одноголосый)

Качество: HDRip
Формат:AVI
Видео кодек: XviD
Аудио кодек: MP3
Видео: 16:9, 2100 Кбит/сек, 720x400, 25,000 кадров/сек
Аудио: MP3, 2 канала, 192 Кбит/сек, 48,0 КГц



Общее
Полное имя : D:Дикая природа Анд.[R.G.RealMT].avi
Формат : AVI
Формат/Информация : Audio Video Interleave
Размер файла : 847 Мбайт
Продолжительность : 51 м.
Общий поток : 2301 Кбит/сек
Программа кодирования : VirtualDubMod 1.5.10.3 | www.virtualdub-fr.org || (build 2550/release)
Библиотека кодирования : VirtualDubMod build 2550/release

Видео
Идентификатор : 0
Формат : MPEG-4 Visual
Профиль формата : Advanced Simple@L5
Параметр BVOP формата : 2
Параметр QPel формата : Нет
Параметр GMC формата : Без точки перехода
Параметр матрицы формата : Default (H.263)
Режим смешивания : Сжатый битовый поток
Идентификатор кодека : XVID
Идентификатор кодека/Подсказка : XviD
Продолжительность : 51 м.
Битрейт : 2100 Кбит/сек
Ширина : 720 пикселей
Высота : 400 пикселей
Соотношение сторон : 16:9
Частота кадров : 25,000 кадров/сек
Цветовое пространство : YUV
Субдискретизация насыщенности : 4:2:0
Битовая глубина : 8 бит
Тип развёртки : Прогрессивная
Метод сжатия : С потерями
Бит/(Пиксели*Кадры) : 0.292
Размер потока : 773 Мбайт (91%)
Библиотека кодирования : XviD 1.2.1 (UTC 2008-12-04)

Аудио
Идентификатор : 1
Формат : MPEG Audio
Версия формата : Version 1
Профиль формата : Layer 3
Идентификатор кодека : 55
Идентификатор кодека/Подсказка : MP3
Продолжительность : 51 м.
Вид битрейта : Постоянный
Битрейт : 192 Кбит/сек
Каналы : 2 канала
Частота : 48,0 КГц
Метод сжатия : С потерями
Размер потока : 70,7 Мбайт (8%)
Выравнивание : Соединение по промежуткам
Продолжительность промежутка : 40 мс. (1,00 видеокадр)
Время предзагрузки промежутка : 504 мс.
Библиотека кодирования : LAME3.99r
Настройки программы : -m s -V 4 -q 2 -lowpass 18.6 -b 192

Релиз от:



   Похожие торренты   Торрент   Размер 
В этой теме нет новых непрочитанных сообщений. Дикая природа Анд / Wild Faces of the Andes / Im Schatten der Anden (2011) HDRip 720p | P1

4 | 4

1.92 ГБ

В этой теме нет новых непрочитанных сообщений. Дикая природа России / Wild Russia [S1] (2009) HDRip от R.G.RealMT | P1

18 | 6

5.05 ГБ

В этой теме нет новых непрочитанных сообщений. Дикая природа Скандинавии / Wildes Skandinavien [01-07 из 07] (2011) HDRip от R.G.RealMT

3 | 38

4.91 ГБ

В этой теме нет новых непрочитанных сообщений. Дикая природа Японии / Wildes Japan (2010) HDRip от R.G.RealMT | P1

4 | 3

1.36 ГБ

В этой теме нет новых непрочитанных сообщений. National Geographic. Дикая природа Америки / Untamed Americas (2012) HDRip от R.G.RealMT | A

3 | 2

2.92 ГБ

В этой теме нет новых непрочитанных сообщений. Дикая природа Аляски / Wild Alaska (2011) HDTVRip от Leo.pard | D

4 | 2

700.66 МБ

В этой теме нет новых непрочитанных сообщений. Дикая природа Аляски / Wild Alaska (2011) HDTVRip-AVC от Leo.pard | D

7 | 2

699.57 МБ




Вы не можете начинать темы
Вы не можете отвечать на сообщения
Вы не можете редактировать свои сообщения
Вы не можете удалять свои сообщения
Вы не можете добавлять вложения

Перейти:  
Для Мосгорсуда, Роскомнадзора и рекламодателей: mosgorsud-torrent[собачка]yandex.ru
 Вход
ppkBB3cker v.2 © 2008-2014 @ PPK
[ Time : 0.040s | 16 Queries | GZIP : On ]

Торрент трекер RUTOR.IN, Не можете зайти на rutor.org? Какой новый адрес рутор? Какое зеркало рутор? Не работает rutor.org и зеркала? Тогда наш торрент специально для вас. Rutor.in неофициальное зеркало rutor. В случае если у Вас заблокирован rutor или вдруг Вы не можете на него зайти, то Вы без труда сможете скачать бесплатно и без рекламы последние новинки кино, игр, сериалов и прочего у нас, на Rutor.in. Не нужно использовать прокси, чтобы зайти на рутор, достаточно воспользоваться нашим ресурсом. Все новые фильмы, игры, сериалы, книги и музыка за 2013 и 2014 годы через торрент бесплатно. Скачивайте фильмы в хорошем качестве, игры для пк, xbox, playstation без регистрации. У нас вы найдете новые Зарубежные сериалы и Русские сериалы 2013, 2014, 2015 годов. Оставайтесь с нами, качайте любимые фильмы, игры, сериалы, книги и музыку.