img image001 image001 image001 image001 image001 image001 image001 image001 image001 image001 image001 image001 image001 image001 image001

Planets Sun Sun Sun
Статистика раздачи
Автор: Снежана | Размер: 3.16 ГБ | Добавлен: 25 июл 2013
Раздают: 19    Качают: 8
Скачать торрент
Скачать торрент
Описание торрента

СообщениеДобавлено: 25 июл 2013 

#77

Информация о фильме
Название: Дунай-2:Европейская Амазонка.Леса,разливы,морозы
Оригинальное название: Danube:Europe`s Amazon.Forest,flood and frost
Год выхода: 2012
Жанр: Документальный
Режиссер: Michael Schlamberger & Rita Schlamberger

О фильме:
По ходу течения через разнообразные ландшафты Дунай меняется. На жизнь в его бассейне также оказывают влияние наводнения и засухи.

Страна: Германия
Студия: ORF/Universum Science Vision NDR/Naturefilm Doc Lights BR
Продолжительность: 00:45:00
Перевод: Дублированный

Файл
Кодек: H.264
Качество: HDTV 1080i
Видео: 1920 x 1080 (1.778), 25.000 fps,9170 Кбит/сек
Звук:
Аудио 1: Русский MPEG Audio , 192 Кбит/сек, 2 канала, 48,0 КГц
Аудио 2: English MPEG Audio , 192 Кбит/сек, 2 канала, 48,0 КГц

Format : MPEG-TS
File size : 3.16 GiB
Duration : 44mn 59s
Overall bit rate : 10.1 Mbps

Video
ID : 321 (0x141)
Menu ID : 1 (0x1)
Format : AVC
Format/Info : Advanced Video Codec
Format profile : Main@L4.0
Format settings, CABAC : Yes
Format settings, ReFrames : 3 frames
Codec ID : 27
Duration : 44mn 59s
Bit rate : 9 170 Kbps
Width : 1 920 pixels
Height : 1 080 pixels
Display aspect ratio : 16:9
Frame rate : 25.000 fps
Standard : Component
Color space : YUV
Chroma subsampling : 4:2:0
Bit depth : 8 bits
Scan type : Interlaced
Scan order : Top Field First
Bits/(Pixel*Frame) : 0.177
Stream size : 2.88 GiB (91%)
Color primaries : BT.709-5, BT.1361, IEC 61966-2-4, SMPTE RP177
Transfer characteristics : BT.709-5, BT.1361
Matrix coefficients : BT.709-5, BT.1361, IEC 61966-2-4 709, SMPTE RP177

Audio #1
ID : 401 (0x191)
Menu ID : 1 (0x1)
Format : MPEG Audio
Format version : Version 1
Format profile : Layer 2
Codec ID : 3
Duration : 44mn 59s
Bit rate mode : Constant
Bit rate : 192 Kbps
Channel(s) : 2 channels
Sampling rate : 48.0 KHz
Compression mode : Lossy
Delay relative to video : -40ms
Stream size : 61.8 MiB (2%)
Language : Russian

Audio #2
ID : 451 (0x1C3)
Menu ID : 1 (0x1)
Format : MPEG Audio
Format version : Version 1
Format profile : Layer 2
Codec ID : 3
Duration : 44mn 59s
Bit rate mode : Constant
Bit rate : 192 Kbps
Channel(s) : 2 channels
Sampling rate : 48.0 KHz
Compression mode : Lossy
Delay relative to video : -40ms
Stream size : 61.8 MiB (2%)
Language : English






   Похожие торренты   Торрент   Размер 
В этой теме нет новых непрочитанных сообщений. Nat Geo Wild: Дунай. Европейская Амазонка. От Чёрного леса до Чёрного моря / Danube. Europe`s Amazon (2012) HDTV 1080i

2 | 14

3.46 ГБ

В этой теме нет новых непрочитанных сообщений. Тайны заливного леса: Национальный парк Дунай / Secrets of the Flooded Forest: Danube National Park (2010) HDTVRip 1080p от MediaClub

2 | 14

4.36 ГБ

В этой теме нет новых непрочитанных сообщений. Амазонка / Amazon (1997) BDRip от HQ-ViDEO

23 | 23

745.5 МБ

В этой теме нет новых непрочитанных сообщений. Амазонка в огне / Fire on the Amazon (1993) DVDRip

23 | 15

1.37 ГБ

В этой теме нет новых непрочитанных сообщений. Амазонка в огне / Fire on the Amazon (1993) DVDRip

11 | 2

1.37 ГБ

В этой теме нет новых непрочитанных сообщений. BBC: Амазонка - Великая река мира / Amazon: super river (2007) DVDRip

18 | 2

732.48 МБ

В этой теме нет новых непрочитанных сообщений. Рыбы-чудовища. Бушующая Амазонка / Monster fish.Raging Amazon (2010) SATRip

2 | 5

635.1 МБ




Вы не можете начинать темы
Вы не можете отвечать на сообщения
Вы не можете редактировать свои сообщения
Вы не можете удалять свои сообщения
Вы не можете добавлять вложения

Перейти:  
Для Мосгорсуда, Роскомнадзора и рекламодателей: mosgorsud-torrent[собачка]yandex.ru
 Вход
ppkBB3cker v.2 © 2008-2014 @ PPK
[ Time : 0.022s | 14 Queries | GZIP : Off ]

Торрент трекер RUTOR.IN, Не можете зайти на rutor.org? Какой новый адрес рутор? Какое зеркало рутор? Не работает rutor.org и зеркала? Тогда наш торрент специально для вас. Rutor.in неофициальное зеркало rutor. В случае если у Вас заблокирован rutor или вдруг Вы не можете на него зайти, то Вы без труда сможете скачать бесплатно и без рекламы последние новинки кино, игр, сериалов и прочего у нас, на Rutor.in. Не нужно использовать прокси, чтобы зайти на рутор, достаточно воспользоваться нашим ресурсом. Все новые фильмы, игры, сериалы, книги и музыка за 2013 и 2014 годы через торрент бесплатно. Скачивайте фильмы в хорошем качестве, игры для пк, xbox, playstation без регистрации. У нас вы найдете новые Зарубежные сериалы и Русские сериалы 2013, 2014, 2015 годов. Оставайтесь с нами, качайте любимые фильмы, игры, сериалы, книги и музыку.