img image001 image001 image001 image001 image001 image001 image001 image001 image001 image001 image001 image001 image001 image001 image001

Planets Sun Sun Sun
Статистика раздачи
Автор: Снежана | Размер: 2.32 ГБ | Добавлен: 25 июл 2013
Раздают: 3    Качают: 2
Скачать торрент
Скачать торрент
Описание торрента

СообщениеДобавлено: 25 июл 2013 

#77

Год выпуска: 2011
Страна: США , National Geographic
Жанр: Документальный, научно-познавательный, фауна, природа,
Продолжительность: 3 ~ 00:48:01
Перевод: Авторский (одноголосый закадровый)
Недостающие в переводе фразы: (3 минуты на серию) переведены субтитрами.

Режиссер: Дункан Чард

В ролях: Дэвид Аттенборо / David Attenborough (Актер)

Описание:Индия, являющаяся домом для более чем миллиарда человек, имеет и дикие области, населенные великанами, хищниками и экзотическими существами. Легендарный натуралист сэр Дэвид Аттенборо в очередном фильме из серии "Дикая природа" расскажет о удивительной природе этой загадочной страны. Вы посмотрите на мир гигантских травоядных, обитающих в предгорьях Гималаев в Индии, глазами новорожденного слонёнка; окунетесь в суровые условия пустынь и соляных пустошей северо-запада Индии, где лишь самые выносливые животные могут выдерживать песчаные бури, засуху и зной; окажитесь на поле боя, где правят клыки и когти, хищники, такие как бенгальский тигр и красный волк, конкурируют за территорию, воду и пищу.[/color]

Содержание:
1: В царстве слонов / Elephant Kingdom
2: Хищники джунглей / Tiger Jungles
3: Львы пустыни / Desert Lions

Качество: HDRip
Формат:AVI
Видео кодек: XviD
Аудио кодек: MP3
Видео: 16:9, 2100 Кбит/сек, 720x400, 25,000 кадров/сек
Аудио: MP3, 2 канала, 192 Кбит/сек, 48,0 КГц

Общее
Полное имя : D:Секреты дикой ИндииEpizod.1.[R.G.RealMT].avi
Формат : AVI
Формат/Информация : Audio Video Interleave
Размер файла : 790 Мбайт
Продолжительность : 48 м.
Общий поток : 2301 Кбит/сек
Программа кодирования : VirtualDubMod 1.5.10.3 | www.virtualdub-fr.org || (build 2550/release)
Библиотека кодирования : VirtualDubMod build 2550/release

Видео
Идентификатор : 0
Формат : MPEG-4 Visual
Профиль формата : Advanced Simple@L5
Параметр BVOP формата : 2
Параметр QPel формата : Нет
Параметр GMC формата : Без точки перехода
Параметр матрицы формата : Default (H.263)
Режим смешивания : Сжатый битовый поток
Идентификатор кодека : XVID
Идентификатор кодека/Подсказка : XviD
Продолжительность : 48 м.
Битрейт : 2100 Кбит/сек
Ширина : 720 пикселей
Высота : 400 пикселей
Соотношение сторон : 16:9
Частота кадров : 25,000 кадров/сек
Цветовое пространство : YUV
Субдискретизация насыщенности : 4:2:0
Битовая глубина : 8 бит
Тип развёртки : Прогрессивная
Метод сжатия : С потерями
Бит/(Пиксели*Кадры) : 0.292
Размер потока : 721 Мбайт (91%)
Библиотека кодирования : XviD 1.2.1 (UTC 2008-12-04)

Аудио
Идентификатор : 1
Формат : MPEG Audio
Версия формата : Version 1
Профиль формата : Layer 3
Идентификатор кодека : 55
Идентификатор кодека/Подсказка : MP3
Продолжительность : 48 м.
Вид битрейта : Постоянный
Битрейт : 192 Кбит/сек
Каналы : 2 канала
Частота : 48,0 КГц
Метод сжатия : С потерями
Размер потока : 65,9 Мбайт (8%)
Выравнивание : Соединение по промежуткам
Продолжительность промежутка : 40 мс. (1,00 видеокадр)
Время предзагрузки промежутка : 504 мс.
Библиотека кодирования : LAME3.99r
Настройки программы : -m s -V 4 -q 2 -lowpass 18.6 -b 192


Релиз от:



   Похожие торренты   Торрент   Размер 
В этой теме нет новых непрочитанных сообщений. National Geographic: Секреты дикой Индии / National Geographic: Secrets of Wild India [01-03 серии из 03] (2011) BDRip-AVC от Alex ST | A1

5 | 4

2.31 ГБ

В этой теме нет новых непрочитанных сообщений. Секреты дикой Индии / Secrets of Wild India [01-03 серии из 03] (2011) BDRip 1080p от Freeisland

4 | 4

8.14 ГБ

В этой теме нет новых непрочитанных сообщений. National Geographic: Рождение Европы / National Geographic: Birth of Europe [01-03 из 03] (2011) HDRip от R.G.RealMT

2 | 5

2.17 ГБ

В этой теме нет новых непрочитанных сообщений. National Geographic: Самые опасные акулы / National Geographic: World's Deadliest Sharks (2011) HDTVRip от R.G.RealMT | P1

5 | 3

790.21 МБ

В этой теме нет новых непрочитанных сообщений. National Geographic. Дикие животные Севера / National Geographic. Nordic Wild [01-04 из 04] (2011) HDTV 1080i

25 | 6

9.27 ГБ

В этой теме нет новых непрочитанных сообщений. National Geographic: Кумбха мела / National Geographic: World's Biggest Festival Kumbh Mela (2013) HDTVRip от R.G.RealMT | P1

0 | 3

738.41 МБ

В этой теме нет новых непрочитанных сообщений. National Geographic: Загадки королевской кобры / National Geographic: Secrets of the King Cobra (2009) HDTVRip от KinoZalSat

1 | 5

699.38 МБ




Вы не можете начинать темы
Вы не можете отвечать на сообщения
Вы не можете редактировать свои сообщения
Вы не можете удалять свои сообщения
Вы не можете добавлять вложения

Перейти:  
Для Мосгорсуда, Роскомнадзора и рекламодателей: mosgorsud-torrent[собачка]yandex.ru
 Вход
ppkBB3cker v.2 © 2008-2014 @ PPK
[ Time : 0.038s | 16 Queries | GZIP : Off ]

Торрент трекер RUTOR.IN, Не можете зайти на rutor.org? Какой новый адрес рутор? Какое зеркало рутор? Не работает rutor.org и зеркала? Тогда наш торрент специально для вас. Rutor.in неофициальное зеркало rutor. В случае если у Вас заблокирован rutor или вдруг Вы не можете на него зайти, то Вы без труда сможете скачать бесплатно и без рекламы последние новинки кино, игр, сериалов и прочего у нас, на Rutor.in. Не нужно использовать прокси, чтобы зайти на рутор, достаточно воспользоваться нашим ресурсом. Все новые фильмы, игры, сериалы, книги и музыка за 2013 и 2014 годы через торрент бесплатно. Скачивайте фильмы в хорошем качестве, игры для пк, xbox, playstation без регистрации. У нас вы найдете новые Зарубежные сериалы и Русские сериалы 2013, 2014, 2015 годов. Оставайтесь с нами, качайте любимые фильмы, игры, сериалы, книги и музыку.