img image001 image001 image001 image001 image001 image001 image001 image001 image001 image001 image001 image001 image001 image001 image001

Planets Sun Sun Sun
Статистика раздачи
Автор: Снежана | Размер: 3.64 ГБ | Добавлен: 24 июл 2013
Раздают: 3    Качают: 3
Скачать торрент
Скачать торрент
Описание торрента

СообщениеДобавлено: 24 июл 2013 

#77

Название: Discovery. Золото джунглей
Оригинальное название: Discovery. Jungle Gold
Год выпуска: 2012
Жанр: Документальный, научно-познавательный, природа, география, путешествия, приключения, исследование
Режиссер: Гари Кларк

Описание: Бывшие магнаты недвижимости Скотт и Джордж потеряли все во время экономического спада. Смогут ли они снова разбогатеть на добыче золота в опасных джунглях Ганы?...



Выпущено: CША, Raw Television, Discovery Channel
Продолжительность: 07 x ~ 00:44:00
Перевод:
Голос рассказчика - Дубляж
Интервью - Профессиональный (одноголосый, закадровый)

Качество: SATRip
Формат: MKV
Видео: MPEG-4 AVC, ~ 1450 Кбит/с, 704x400
Аудио: AC3, 2 ch, 192 Кбит/с

Общее
Уникальный идентификатор : 247853261484635540538118366921053494506 (0xBA76CD4377CE9163B0E92E300734DCEA)
Полное имя : D:KINOJungle.Gold.s01.2012.AVC.SATRipJungle.Gold.s01e01.2012.AVC.SATRip.mkv
Формат : Matroska
Версия формата : Version 4 / Version 2
Размер файла : 531 Мбайт
Продолжительность : 44 м.
Общий поток : 1685 Кбит/сек
Дата кодирования : UTC 2013-03-23 14:10:03
Программа кодирования : mkvmerge v6.1.0 ('Old Devil') built on Mar 2 2013 14:32:37
Библиотека кодирования : libebml v1.3.0 + libmatroska v1.4.0

Видео
Идентификатор : 1
Формат : AVC
Формат/Информация : Advanced Video Codec
Профиль формата : Baseline@L1.3
Параметр CABAC формата : Нет
Параметр ReFrames формата : 1 кадр
Идентификатор кодека : V_MPEG4/ISO/AVC
Продолжительность : 44 м.
Битрейт : 1460 Кбит/сек
Ширина : 704 пикселя
Высота : 400 пикселей
Соотношение сторон : 16:9
Режим частоты кадров : Постоянный
Частота кадров : 25,000 кадров/сек
Цветовое пространство : YUV
Субдискретизация насыщенности : 4:2:0
Битовая глубина : 8 бит
Тип развёртки : Прогрессивная
Бит/(Пиксели*Кадры) : 0.207
Размер потока : 460 Мбайт (87%)
Библиотека кодирования : t=сШіс
Default : Да
Forced : Нет

Аудио
Идентификатор : 2
Формат : AC-3
Формат/Информация : Audio Coding 3
Расширение режима : CM (complete main)
Параметр Endianness формата : Big
Идентификатор кодека : A_AC3
Продолжительность : 44 м.
Вид битрейта : Постоянный
Битрейт : 192 Кбит/сек
Каналы : 2 канала
Расположение каналов : Front: L R
Частота : 48,0 КГц
Битовая глубина : 16 бит
Метод сжатия : С потерями
Размер потока : 60,5 Мбайт (11%)
Язык : Russian
Default : Да
Forced : Нет

Общее
Уникальный идентификатор : 208638241647361698984291685556666923134 (0x9CF64382B6EB429095A784FCF0DE787E)
Полное имя : D:KINOJungle.Gold.s01.2012.AVC.SATRipJungle.Gold.s01e02.2012.AVC.SATRip.mkv
Формат : Matroska
Версия формата : Version 4 / Version 2
Размер файла : 533 Мбайт
Продолжительность : 44 м.
Общий поток : 1691 Кбит/сек
Дата кодирования : UTC 2013-03-23 15:04:18
Программа кодирования : mkvmerge v6.1.0 ('Old Devil') built on Mar 2 2013 14:32:37
Библиотека кодирования : libebml v1.3.0 + libmatroska v1.4.0

Видео
Идентификатор : 1
Формат : AVC
Формат/Информация : Advanced Video Codec
Профиль формата : Baseline@L1.3
Параметр CABAC формата : Нет
Параметр ReFrames формата : 1 кадр
Идентификатор кодека : V_MPEG4/ISO/AVC
Продолжительность : 44 м.
Битрейт : 1465 Кбит/сек
Ширина : 704 пикселя
Высота : 400 пикселей
Соотношение сторон : 16:9
Режим частоты кадров : Постоянный
Частота кадров : 25,000 кадров/сек
Цветовое пространство : YUV
Субдискретизация насыщенности : 4:2:0
Битовая глубина : 8 бит
Тип развёртки : Прогрессивная
Бит/(Пиксели*Кадры) : 0.208
Размер потока : 462 Мбайт (87%)
Библиотека кодирования : ”?сШіс
Default : Да
Forced : Нет

Аудио
Идентификатор : 2
Формат : AC-3
Формат/Информация : Audio Coding 3
Расширение режима : CM (complete main)
Параметр Endianness формата : Big
Идентификатор кодека : A_AC3
Продолжительность : 44 м.
Вид битрейта : Постоянный
Битрейт : 192 Кбит/сек
Каналы : 2 канала
Расположение каналов : Front: L R
Частота : 48,0 КГц
Битовая глубина : 16 бит
Метод сжатия : С потерями
Размер потока : 60,6 Мбайт (11%)
Язык : Russian
Default : Да
Forced : Нет





   Похожие торренты   Торрент   Размер 
В этой теме нет новых непрочитанных сообщений. Discovery: Золото льдов / Ледяное золото / Ice Cold Gold [01-06 из 06] (2013) SATRip

2 | 2

2.99 ГБ

В этой теме нет новых непрочитанных сообщений. Золото льдов / Ледяное золото / Discovery: Ice Cold Gold [02х01-08] (2014) SATRip от HitWay | P1

22 | 12

4.05 ГБ

В этой теме нет новых непрочитанных сообщений. Золото льдов / Ледяное золото / Discovery: Ice Cold Gold [02х01-07] (2014) SATRip от HitWay | P1

12 | 6

3.54 ГБ

В этой теме нет новых непрочитанных сообщений. Золото льдов / Ледяное золото / Discovery: Ice Cold Gold [02х01-06] (2014) SATRip от HitWay | P1

9 | 16

3.04 ГБ

В этой теме нет новых непрочитанных сообщений. Золото льдов / Ледяное золото / Discovery: Ice Cold Gold [02х01-09] (2014) SATRip от HitWay | P1

32 | 14

4.56 ГБ

В этой теме нет новых непрочитанных сообщений. Золото льдов / Ледяное золото / Discovery: Ice Cold Gold [02х01-05] (2014) SATRip от HitWay | P1

28 | 10

2.53 ГБ

В этой теме нет новых непрочитанных сообщений. Discovery: Золото льдов / Ледяное золото / Ice Cold Gold [02х01] (2014) SATRip от HitWay | P1

28 | 6

521.46 МБ




Вы не можете начинать темы
Вы не можете отвечать на сообщения
Вы не можете редактировать свои сообщения
Вы не можете удалять свои сообщения
Вы не можете добавлять вложения

Перейти:  
Для Мосгорсуда, Роскомнадзора и рекламодателей: mosgorsud-torrent[собачка]yandex.ru
 Вход
ppkBB3cker v.2 © 2008-2014 @ PPK
[ Time : 0.045s | 15 Queries | GZIP : Off ]

cron