img image001 image001 image001 image001 image001 image001 image001 image001 image001 image001 image001 image001 image001 image001 image001

Planets Sun Sun Sun
Статистика раздачи
Автор: Снежана | Размер: 21.53 ГБ | Добавлен: 25 июл 2013
Раздают: 15    Качают: 6
Скачать торрент
Скачать торрент
Описание торрента

СообщениеДобавлено: 25 июл 2013 

#77

Название: Неизведанные острова
Оригинальное название: Wildest Islands
Год выпуска: 2012-2013
Жанр: Документальный, путешествие, туризм, природа, флора, фауна
Выпущено: США, Off The Fence, Discovery LLC
Режиссер: Колин Коллис, Ричард Кирби

Описание: У каждого райского острова есть свои хозяева - их исконные обитатели: от гигантов, оставшихся здесь со времён динозавров, до крохотных трудяг, не встречающихся больше нигде. Здесь самая большая в мире концентрация видов, здесь есть, на что посмотреть. Острова часто становятся домом для необычных созданий. Исследуем самые красивые острова планеты, и знакомимся с людьми и животными, для которых это родной дом.

Выпущено: США, Off The Fence, Discovery LLC
Продолжительность: 07 х ~ 00:44:00
Перевод: Дубляж

Качество: HDTV 1080i
Формат: MKV
Видео: AVC, ~ 8754 Кбит/с, 1920x1080
Аудио rus: АС3, 6 ch, 384 Кбит/с
Аудио eng: АС3, 6 ch, 384 Кбит/с

01. Занзибар / Zanzibar (2012)
На архипелаге Занзибар обитают гигантские черепахи-алдабра, большие зеленые черепахи, кокосовые крабы, огромные китовые акулы и громадные скаты. Чем привлекает их среда обитания?
02. Карибы / Caribbean (2012)
В районе Карибов можно обнаружить более 800 видов рыб, кожистых черепах, обезьян, шелковистых муравьедов, алых ибисов и очковых кайманов. В чем преимущества этой среды обитания?
03. Галапагосские острова / Galapagos (2012)
Как людям, растениям и животным удается выживать и благоденствовать в отдаленных местах, таких как Галапагосские острова или буйные леса Занзибара? Вы можете узнать об этом.
04. Шри Ланка / Sri Lanka (2012)
Как умудряются люди, растения и животные выживать в экстремальных условиях различных природных зон, от Галапагосских островов до буйных лесов Занзибара? Попробуем узнать.
05. Гебриды / Hebrides (2012)
Гебридские острова - среда обитания тупиков, золотоголовых орлов, гигантских акул, китов, дельфинов, нутрий и коростелей. В чем преимущества этой среды обитания?
06. Бразилия. Амазонка / Brazil. Amazon (2013)
Познакомьтесь с удивительными обитателями этих островов, затерянных посреди джунглей, на реках Рио Негро и Амазонке. Как им удалось приспособиться к местным условиям?
07. Ванкувер / Vancouver (2013)
Остров Ванкувер - обширная территория, где сохранилась дикая природа. По всей длине острова, будто позвоночник, тянутся зубчатые горы. Природа острова Ванкувер уникальна.
Полное имя : G:UPLOADWildest Islands�1.Занзибар.ts
Формат : MPEG-TS
Размер файла : 2,94 Гбайт
Продолжительность : 43 м.
Режим общего битрейта : Переменный
Общий поток : 9586 Кбит/сек
Видео
Идентификатор : 324 (0x144)
Идентификатор меню : 1 (0x1)
Формат : AVC
Формат/Информация : Advanced Video Codec
Профиль формата : Main@L4.0
Параметр CABAC формата : Да
Параметр ReFrames формата : 3 кадра
Идентификатор кодека : 27
Продолжительность : 43 м.
Битрейт : 8337 Кбит/сек
Ширина : 1920 пикселей
Высота : 1080 пикселей
Соотношение сторон : 16:9
Частота кадров : 25,000 кадров/сек
Стандарт вещания : Component
Цветовое пространство : YUV
Субдискретизация насыщенности : 4:2:0
Битовая глубина : 8 бит
Тип развёртки : Чересстрочная
Порядок развёртки : Верхнее поле первое
Бит/(Пиксели*Кадры) : 0.161
Размер потока : 2,55 Гбайт (87%)
Основные цвета : BT.709
Характеристики трансфера : BT.709
Коэффициенты матрицы : BT.709
Аудио #1
Идентификатор : 404 (0x194)
Идентификатор меню : 1 (0x1)
Формат : AC-3
Формат/Информация : Audio Coding 3
Расширение режима : CM (complete main)
Параметр Endianness формата : Big
Идентификатор кодека : 6
Продолжительность : 43 м.
Вид битрейта : Постоянный
Битрейт : 384 Кбит/сек
Каналы : 6 каналов
Расположение каналов : Front: L C R, Side: L R, LFE
Частота : 48,0 КГц
Битовая глубина : 16 бит
Метод сжатия : С потерями
Размер потока : 120 Мбайт (4%)
Язык : Russian
Аудио #2
Идентификатор : 414 (0x19E)
Идентификатор меню : 1 (0x1)
Формат : AC-3
Формат/Информация : Audio Coding 3
Расширение режима : CM (complete main)
Параметр Endianness формата : Big
Идентификатор кодека : 6
Продолжительность : 43 м.
Вид битрейта : Постоянный
Битрейт : 384 Кбит/сек
Каналы : 6 каналов
Расположение каналов : Front: L C R, Side: L R, LFE
Частота : 48,0 КГц
Битовая глубина : 16 бит
Метод сжатия : С потерями
Размер потока : 120 Мбайт (4%)
Язык : English
Общее
Идентификатор : 1 (0x1)
Полное имя : G:UPLOADWildest Islands�2.Карибы.ts
Формат : MPEG-TS
Размер файла : 3,19 Гбайт
Продолжительность : 43 м.
Режим общего битрейта : Переменный
Общий поток : 10,4 Мбит/сек
Видео
Идентификатор : 324 (0x144)
Идентификатор меню : 1 (0x1)
Формат : AVC
Формат/Информация : Advanced Video Codec
Профиль формата : Main@L4.0
Параметр CABAC формата : Да
Параметр ReFrames формата : 3 кадра
Идентификатор кодека : 27
Продолжительность : 43 м.
Битрейт : 9082 Кбит/сек
Ширина : 1920 пикселей
Высота : 1080 пикселей
Соотношение сторон : 16:9
Частота кадров : 25,000 кадров/сек
Стандарт вещания : Component
Цветовое пространство : YUV
Субдискретизация насыщенности : 4:2:0
Битовая глубина : 8 бит
Тип развёртки : Чересстрочная
Порядок развёртки : Верхнее поле первое
Бит/(Пиксели*Кадры) : 0.175
Размер потока : 2,79 Гбайт (88%)
Основные цвета : BT.709
Характеристики трансфера : BT.709
Коэффициенты матрицы : BT.709
Аудио #1
Идентификатор : 404 (0x194)
Идентификатор меню : 1 (0x1)
Формат : AC-3
Формат/Информация : Audio Coding 3
Расширение режима : CM (complete main)
Параметр Endianness формата : Big
Идентификатор кодека : 6
Продолжительность : 43 м.
Вид битрейта : Постоянный
Битрейт : 384 Кбит/сек
Каналы : 6 каналов
Расположение каналов : Front: L C R, Side: L R, LFE
Частота : 48,0 КГц
Битовая глубина : 16 бит
Метод сжатия : С потерями
Размер потока : 121 Мбайт (4%)
Язык : Russian
Аудио #2
Идентификатор : 414 (0x19E)
Идентификатор меню : 1 (0x1)
Формат : AC-3
Формат/Информация : Audio Coding 3
Расширение режима : CM (complete main)
Параметр Endianness формата : Big
Идентификатор кодека : 6
Продолжительность : 43 м.
Вид битрейта : Постоянный
Битрейт : 384 Кбит/сек
Каналы : 6 каналов
Расположение каналов : Front: L C R, Side: L R, LFE
Частота : 48,0 КГц
Битовая глубина : 16 бит
Метод сжатия : С потерями
Размер потока : 121 Мбайт (4%)
Язык : English
Общее
Идентификатор : 1 (0x1)
Полное имя : G:UPLOADWildest Islands�3.Галапагосы.ts
Формат : MPEG-TS
Размер файла : 3,05 Гбайт
Продолжительность : 43 м.
Режим общего битрейта : Переменный
Общий поток : 9952 Кбит/сек
Видео
Идентификатор : 324 (0x144)
Идентификатор меню : 1 (0x1)
Формат : AVC
Формат/Информация : Advanced Video Codec
Профиль формата : Main@L4.0
Параметр CABAC формата : Да
Параметр ReFrames формата : 3 кадра
Идентификатор кодека : 27
Продолжительность : 43 м.
Битрейт : 8685 Кбит/сек
Ширина : 1920 пикселей
Высота : 1080 пикселей
Соотношение сторон : 16:9
Частота кадров : 25,000 кадров/сек
Стандарт вещания : Component
Цветовое пространство : YUV
Субдискретизация насыщенности : 4:2:0
Битовая глубина : 8 бит
Тип развёртки : Чересстрочная
Порядок развёртки : Верхнее поле первое
Бит/(Пиксели*Кадры) : 0.168
Размер потока : 2,66 Гбайт (87%)
Основные цвета : BT.709
Характеристики трансфера : BT.709
Коэффициенты матрицы : BT.709
Аудио #1
Идентификатор : 404 (0x194)
Идентификатор меню : 1 (0x1)
Формат : AC-3
Формат/Информация : Audio Coding 3
Расширение режима : CM (complete main)
Параметр Endianness формата : Big
Идентификатор кодека : 6
Продолжительность : 43 м.
Вид битрейта : Постоянный
Битрейт : 384 Кбит/сек
Каналы : 6 каналов
Расположение каналов : Front: L C R, Side: L R, LFE
Частота : 48,0 КГц
Битовая глубина : 16 бит
Метод сжатия : С потерями
Размер потока : 121 Мбайт (4%)
Язык : Russian
Аудио #2
Идентификатор : 414 (0x19E)
Идентификатор меню : 1 (0x1)
Формат : AC-3
Формат/Информация : Audio Coding 3
Расширение режима : CM (complete main)
Параметр Endianness формата : Big
Идентификатор кодека : 6
Продолжительность : 43 м.
Вид битрейта : Постоянный
Битрейт : 384 Кбит/сек
Каналы : 6 каналов
Расположение каналов : Front: L C R, Side: L R, LFE
Частота : 48,0 КГц
Битовая глубина : 16 бит
Метод сжатия : С потерями
Размер потока : 121 Мбайт (4%)
Язык : English
Общее
Идентификатор : 1 (0x1)
Полное имя : G:UPLOADWildest Islands�4.Шри-Ланка.ts
Формат : MPEG-TS
Размер файла : 3,14 Гбайт
Продолжительность : 44 м.
Режим общего битрейта : Переменный
Общий поток : 10,2 Мбит/сек
Видео
Идентификатор : 324 (0x144)
Идентификатор меню : 1 (0x1)
Формат : AVC
Формат/Информация : Advanced Video Codec
Профиль формата : Main@L4.0
Параметр CABAC формата : Да
Параметр ReFrames формата : 3 кадра
Идентификатор кодека : 27
Продолжительность : 44 м.
Битрейт : 8948 Кбит/сек
Ширина : 1920 пикселей
Высота : 1080 пикселей
Соотношение сторон : 16:9
Частота кадров : 25,000 кадров/сек
Стандарт вещания : Component
Цветовое пространство : YUV
Субдискретизация насыщенности : 4:2:0
Битовая глубина : 8 бит
Тип развёртки : Чересстрочная
Порядок развёртки : Верхнее поле первое
Бит/(Пиксели*Кадры) : 0.173
Размер потока : 2,75 Гбайт (87%)
Основные цвета : BT.709
Характеристики трансфера : BT.709
Коэффициенты матрицы : BT.709
Аудио #1
Идентификатор : 404 (0x194)
Идентификатор меню : 1 (0x1)
Формат : AC-3
Формат/Информация : Audio Coding 3
Расширение режима : CM (complete main)
Параметр Endianness формата : Big
Идентификатор кодека : 6
Продолжительность : 44 м.
Вид битрейта : Постоянный
Битрейт : 384 Кбит/сек
Каналы : 6 каналов
Расположение каналов : Front: L C R, Side: L R, LFE
Частота : 48,0 КГц
Битовая глубина : 16 бит
Метод сжатия : С потерями
Размер потока : 121 Мбайт (4%)
Язык : Russian
Аудио #2
Идентификатор : 414 (0x19E)
Идентификатор меню : 1 (0x1)
Формат : AC-3
Формат/Информация : Audio Coding 3
Расширение режима : CM (complete main)
Параметр Endianness формата : Big
Идентификатор кодека : 6
Продолжительность : 44 м.
Вид битрейта : Постоянный
Битрейт : 384 Кбит/сек
Каналы : 6 каналов
Расположение каналов : Front: L C R, Side: L R, LFE
Частота : 48,0 КГц
Битовая глубина : 16 бит
Метод сжатия : С потерями
Размер потока : 121 Мбайт (4%)
Язык : English
Общее
Идентификатор : 1 (0x1)
Полное имя : G:UPLOADWildest Islands�5.Гебриды.ts
Формат : MPEG-TS
Размер файла : 2,86 Гбайт
Продолжительность : 43 м.
Режим общего битрейта : Переменный
Общий поток : 9369 Кбит/сек
Видео
Идентификатор : 324 (0x144)
Идентификатор меню : 1 (0x1)
Формат : AVC
Формат/Информация : Advanced Video Codec
Профиль формата : Main@L4.0
Параметр CABAC формата : Да
Параметр ReFrames формата : 3 кадра
Идентификатор кодека : 27
Продолжительность : 43 м.
Битрейт : 8130 Кбит/сек
Ширина : 1920 пикселей
Высота : 1080 пикселей
Соотношение сторон : 16:9
Частота кадров : 25,000 кадров/сек
Стандарт вещания : Component
Цветовое пространство : YUV
Субдискретизация насыщенности : 4:2:0
Битовая глубина : 8 бит
Тип развёртки : Чересстрочная
Порядок развёртки : Верхнее поле первое
Бит/(Пиксели*Кадры) : 0.157
Размер потока : 2,49 Гбайт (87%)
Основные цвета : BT.709
Характеристики трансфера : BT.709
Коэффициенты матрицы : BT.709
Аудио #1
Идентификатор : 404 (0x194)
Идентификатор меню : 1 (0x1)
Формат : AC-3
Формат/Информация : Audio Coding 3
Расширение режима : CM (complete main)
Параметр Endianness формата : Big
Идентификатор кодека : 6
Продолжительность : 43 м.
Вид битрейта : Постоянный
Битрейт : 384 Кбит/сек
Каналы : 6 каналов
Расположение каналов : Front: L C R, Side: L R, LFE
Частота : 48,0 КГц
Битовая глубина : 16 бит
Метод сжатия : С потерями
Размер потока : 120 Мбайт (4%)
Язык : Russian
Аудио #2
Идентификатор : 414 (0x19E)
Идентификатор меню : 1 (0x1)
Формат : AC-3
Формат/Информация : Audio Coding 3
Расширение режима : CM (complete main)
Параметр Endianness формата : Big
Идентификатор кодека : 6
Продолжительность : 43 м.
Вид битрейта : Постоянный
Битрейт : 384 Кбит/сек
Каналы : 6 каналов
Расположение каналов : Front: L C R, Side: L R, LFE
Частота : 48,0 КГц
Битовая глубина : 16 бит
Метод сжатия : С потерями
Размер потока : 120 Мбайт (4%)
Язык : English
Общее
Идентификатор : 1 (0x1)
Полное имя : G:UPLOADWildest Islands�6.Бразилия-Амазонка.ts
Формат : MPEG-TS
Размер файла : 2,99 Гбайт
Продолжительность : 43 м.
Режим общего битрейта : Переменный
Общий поток : 9737 Кбит/сек
Видео
Идентификатор : 324 (0x144)
Идентификатор меню : 1 (0x1)
Формат : AVC
Формат/Информация : Advanced Video Codec
Профиль формата : Main@L4.0
Параметр CABAC формата : Да
Параметр ReFrames формата : 3 кадра
Параметр GOP формата : M=4, N=28
Идентификатор кодека : 27
Продолжительность : 43 м.
Битрейт : 8480 Кбит/сек
Ширина : 1920 пикселей
Высота : 1080 пикселей
Соотношение сторон : 16:9
Частота кадров : 25,000 кадров/сек
Стандарт вещания : Component
Цветовое пространство : YUV
Субдискретизация насыщенности : 4:2:0
Битовая глубина : 8 бит
Тип развёртки : Чересстрочная
Порядок развёртки : Верхнее поле первое
Бит/(Пиксели*Кадры) : 0.164
Размер потока : 2,61 Гбайт (87%)
Основные цвета : BT.709
Характеристики трансфера : BT.709
Коэффициенты матрицы : BT.709
Аудио #1
Идентификатор : 404 (0x194)
Идентификатор меню : 1 (0x1)
Формат : AC-3
Формат/Информация : Audio Coding 3
Расширение режима : CM (complete main)
Параметр Endianness формата : Big
Идентификатор кодека : 6
Продолжительность : 43 м.
Вид битрейта : Постоянный
Битрейт : 384 Кбит/сек
Каналы : 6 каналов
Расположение каналов : Front: L C R, Side: L R, LFE
Частота : 48,0 КГц
Битовая глубина : 16 бит
Метод сжатия : С потерями
Размер потока : 121 Мбайт (4%)
Язык : Russian
Аудио #2
Идентификатор : 414 (0x19E)
Идентификатор меню : 1 (0x1)
Формат : AC-3
Формат/Информация : Audio Coding 3
Расширение режима : CM (complete main)
Параметр Endianness формата : Big
Идентификатор кодека : 6
Продолжительность : 43 м.
Вид битрейта : Постоянный
Битрейт : 384 Кбит/сек
Каналы : 6 каналов
Расположение каналов : Front: L C R, Side: L R, LFE
Частота : 48,0 КГц
Битовая глубина : 16 бит
Метод сжатия : С потерями
Размер потока : 121 Мбайт (4%)
Язык : English
Общее
Идентификатор : 1 (0x1)
Полное имя : G:UPLOADWildest Islands�7.Ванкувер.ts
Формат : MPEG-TS
Размер файла : 3,36 Гбайт
Продолжительность : 43 м.
Режим общего битрейта : Переменный
Общий поток : 10,9 Мбит/сек
Видео
Идентификатор : 324 (0x144)
Идентификатор меню : 1 (0x1)
Формат : AVC
Формат/Информация : Advanced Video Codec
Профиль формата : Main@L4.0
Параметр CABAC формата : Да
Параметр ReFrames формата : 3 кадра
Идентификатор кодека : 27
Продолжительность : 43 м.
Битрейт : 9622 Кбит/сек
Ширина : 1920 пикселей
Высота : 1080 пикселей
Соотношение сторон : 16:9
Частота кадров : 25,000 кадров/сек
Стандарт вещания : Component
Цветовое пространство : YUV
Субдискретизация насыщенности : 4:2:0
Битовая глубина : 8 бит
Тип развёртки : Чересстрочная
Порядок развёртки : Верхнее поле первое
Бит/(Пиксели*Кадры) : 0.186
Размер потока : 2,95 Гбайт (88%)
Основные цвета : BT.709
Характеристики трансфера : BT.709
Коэффициенты матрицы : BT.709
Аудио #1
Идентификатор : 404 (0x194)
Идентификатор меню : 1 (0x1)
Формат : AC-3
Формат/Информация : Audio Coding 3
Расширение режима : CM (complete main)
Параметр Endianness формата : Big
Идентификатор кодека : 6
Продолжительность : 43 м.
Вид битрейта : Постоянный
Битрейт : 384 Кбит/сек
Каналы : 6 каналов
Расположение каналов : Front: L C R, Side: L R, LFE
Частота : 48,0 КГц
Битовая глубина : 16 бит
Метод сжатия : С потерями
Задержка видео : -40 мс.
Размер потока : 121 Мбайт (4%)
Язык : Russian
Аудио #2
Идентификатор : 414 (0x19E)
Идентификатор меню : 1 (0x1)
Формат : AC-3
Формат/Информация : Audio Coding 3
Расширение режима : CM (complete main)
Параметр Endianness формата : Big
Идентификатор кодека : 6
Продолжительность : 43 м.
Вид битрейта : Постоянный
Битрейт : 384 Кбит/сек
Каналы : 6 каналов
Расположение каналов : Front: L C R, Side: L R, LFE
Частота : 48,0 КГц
Битовая глубина : 16 бит
Метод сжатия : С потерями
Задержка видео : -40 мс.
Размер потока : 121 Мбайт (4%)
Язык : English




Релиз от: GREYCAT



   Похожие торренты   Торрент   Размер 
В этой теме нет новых непрочитанных сообщений. Неизведанные острова / Animal Planet: Wildest Islands [01-10] (2012-2013) HDTV 1080i | D

35 | 22

29.18 ГБ

В этой теме нет новых непрочитанных сообщений. Animal Planet: Неизведанные острова / Wildest Islands [01-07] (2012-2013) HDTVRip-AVC

6 | 3

7.02 ГБ

В этой теме нет новых непрочитанных сообщений. Animal Planet: Неизведанные острова / Wildest Islands [01-08] (2012-2013) HDTVRip от HitWay | D

100 | 23

4.69 ГБ

В этой теме нет новых непрочитанных сообщений. Animal Planet: Неизведанные острова / Wildest Islands [01-07] (2012-2013) HDTVRip от HitWay | D

30 | 9

4.11 ГБ

В этой теме нет новых непрочитанных сообщений. Animal Planet: Неизведанные острова / Wildest Islands [01-05] (2012) IPTV

5 | 5

3.09 ГБ

В этой теме нет новых непрочитанных сообщений. Неизведанные острова [01-08] / Wildest Islands (2012-2013) HDTVRip 720p

149 | 74

10.13 ГБ

В этой теме нет новых непрочитанных сообщений. Animal Planet: Смертельные острова / Deadly islands [01-04] (2014) SATRip от HitWay | P1

29 | 31

2.03 ГБ




Вы не можете начинать темы
Вы не можете отвечать на сообщения
Вы не можете редактировать свои сообщения
Вы не можете удалять свои сообщения
Вы не можете добавлять вложения

Перейти:  
Для Мосгорсуда, Роскомнадзора и рекламодателей: mosgorsud-torrent[собачка]yandex.ru
 Вход
ppkBB3cker v.2 © 2008-2014 @ PPK
[ Time : 0.019s | 14 Queries | GZIP : Off ]

Торрент трекер RUTOR.IN, Не можете зайти на rutor.org? Какой новый адрес рутор? Какое зеркало рутор? Не работает rutor.org и зеркала? Тогда наш торрент специально для вас. Rutor.in неофициальное зеркало rutor. В случае если у Вас заблокирован rutor или вдруг Вы не можете на него зайти, то Вы без труда сможете скачать бесплатно и без рекламы последние новинки кино, игр, сериалов и прочего у нас, на Rutor.in. Не нужно использовать прокси, чтобы зайти на рутор, достаточно воспользоваться нашим ресурсом. Все новые фильмы, игры, сериалы, книги и музыка за 2013 и 2014 годы через торрент бесплатно. Скачивайте фильмы в хорошем качестве, игры для пк, xbox, playstation без регистрации. У нас вы найдете новые Зарубежные сериалы и Русские сериалы 2013, 2014, 2015 годов. Оставайтесь с нами, качайте любимые фильмы, игры, сериалы, книги и музыку.