img image001 image001 image001 image001 image001 image001 image001 image001 image001 image001 image001 image001 image001 image001 image001

Planets Sun Sun Sun
Статистика раздачи
Автор: Снежана | Размер: 7.02 ГБ | Добавлен: 25 июл 2013
Раздают: 6    Качают: 3
Скачать торрент
Скачать торрент
Описание торрента

СообщениеДобавлено: 25 июл 2013 

#77

Название: Неизведанные острова
Оригинальное название: Wildest Islands
Год выпуска: 2012-2013
Жанр: Документальный, путешествие, туризм, природа, флора, фауна
Выпущено: США, Off The Fence, Discovery LLC
Режиссер: Колин Коллис, Ричард Кирби

Описание: У каждого райского острова есть свои хозяева - их исконные обитатели: от гигантов, оставшихся здесь со времён динозавров, до крохотных трудяг, не встречающихся больше нигде. Здесь самая большая в мире концентрация видов, здесь есть, на что посмотреть. Острова часто становятся домом для необычных созданий. Исследуем самые красивые острова планеты, и знакомимся с людьми и животными, для которых это родной дом.

Выпущено: США, Off The Fence, Discovery LLC
Продолжительность: 07 х ~ 00:44:00
Перевод: Дубляж



Качество: HDTVRip-AVC
Формат: MKV
Видео: MPEG-4 AVC, ~ 2500 Кбит/с, 1024x576
Аудио rus: АС3, 6 ch, 384 Кбит/с
Аудио eng: АС3, 6 ch, 384 Кбит/с

01. Занзибар / Zanzibar (2012)
На архипелаге Занзибар обитают гигантские черепахи-алдабра, большие зеленые черепахи, кокосовые крабы, огромные китовые акулы и громадные скаты. Чем привлекает их среда обитания?
02. Карибы / Caribbean (2012)
В районе Карибов можно обнаружить более 800 видов рыб, кожистых черепах, обезьян, шелковистых муравьедов, алых ибисов и очковых кайманов. В чем преимущества этой среды обитания?
03. Галапагосские острова / Galapagos (2012)
Как людям, растениям и животным удается выживать и благоденствовать в отдаленных местах, таких как Галапагосские острова или буйные леса Занзибара? Вы можете узнать об этом.
04. Шри Ланка / Sri Lanka (2012)
Как умудряются люди, растения и животные выживать в экстремальных условиях различных природных зон, от Галапагосских островов до буйных лесов Занзибара? Попробуем узнать.
05. Гебриды / Hebrides (2012)
Гебридские острова - среда обитания тупиков, золотоголовых орлов, гигантских акул, китов, дельфинов, нутрий и коростелей. В чем преимущества этой среды обитания?
06. Бразилия. Амазонка / Brazil. Amazon (2013)
Познакомьтесь с удивительными обитателями этих островов, затерянных посреди джунглей, на реках Рио Негро и Амазонке. Как им удалось приспособиться к местным условиям?
07. Ванкувер / Vancouver (2013)
Остров Ванкувер - обширная территория, где сохранилась дикая природа. По всей длине острова, будто позвоночник, тянутся зубчатые горы. Природа острова Ванкувер уникальна.
General
Unique ID : 207327987981642556307326454983402031225 (0x9BF9EB046DF9D980BF93D372B3418879)
Complete name : F:Neizvedannye.ostrova.(1-7.serii.).2012-2013.x264.HDTVRip.(AVC)Neizvedannye.ostrova.(7.serija.iz.7.).Vankuver.2012-2013.x264.HDTVRip.(AVC).mkv
Format : Matroska
Format version : Version 2
File size : 1.00 GiB
Duration : 43mn 56s
Overall bit rate : 3 271 Kbps
Encoded date : UTC 2013-04-24 07:41:24
Writing application : mkvmerge v6.1.0 ('Old Devil') built on Mar 2 2013 14:32:37
Writing library : libebml v1.3.0 + libmatroska v1.4.0

Video
ID : 1
Format : AVC
Format/Info : Advanced Video Codec
Format profile : High@L4.1
Format settings, CABAC : Yes
Format settings, ReFrames : 7 frames
Codec ID : V_MPEG4/ISO/AVC
Duration : 43mn 56s
Bit rate : 2 500 Kbps
Width : 1 024 pixels
Height : 576 pixels
Display aspect ratio : 16:9
Frame rate mode : Constant
Frame rate : 25.000 fps
Color space : YUV
Chroma subsampling : 4:2:0
Bit depth : 8 bits
Scan type : Progressive
Bits/(Pixel*Frame) : 0.170
Stream size : 766 MiB (75%)
Title : Ванкувер
Writing library : x264 core 130 r2273 b3065e6
Encoding settings : cabac=1 / ref=7 / deblock=1:-2:-2 / analyse=0x3:0x133 / me=umh / subme=10 / psy=1 / psy_rd=1.00:0.10 / mixed_ref=1 / me_range=24 / chroma_me=1 / trellis=2 / 8x8dct=1 / cqm=0 / deadzone=21,11 / fast_pskip=0 / chroma_qp_offset=-3 / threads=6 / lookahead_threads=1 / sliced_threads=0 / nr=0 / decimate=1 / interlaced=0 / bluray_compat=0 / constrained_intra=0 / bframes=7 / b_pyramid=2 / b_adapt=2 / b_bias=0 / direct=3 / weightb=1 / open_gop=0 / weightp=2 / keyint=250 / keyint_min=23 / scenecut=40 / intra_refresh=0 / rc_lookahead=40 / rc=2pass / mbtree=1 / bitrate=2500 / ratetol=1.0 / qcomp=0.60 / qpmin=10 / qpmax=51 / qpstep=4 / cplxblur=20.0 / qblur=0.5 / vbv_maxrate=62500 / vbv_bufsize=78125 / nal_hrd=none / ip_ratio=1.40 / aq=1:1.00
Default : Yes
Forced : Yes

Audio #1
ID : 2
Format : AC-3
Format/Info : Audio Coding 3
Mode extension : CM (complete main)
Format settings, Endianness : Big
Codec ID : A_AC3
Duration : 43mn 56s
Bit rate mode : Constant
Bit rate : 384 Kbps
Channel(s) : 6 channels
Channel positions : Front: L C R, Side: L R, LFE
Sampling rate : 48.0 KHz
Bit depth : 16 bits
Compression mode : Lossy
Stream size : 121 MiB (12%)
Title : Dub
Language : Russian
Default : Yes
Forced : Yes

Audio #2
ID : 3
Format : AC-3
Format/Info : Audio Coding 3
Mode extension : CM (complete main)
Format settings, Endianness : Big
Codec ID : A_AC3
Duration : 43mn 56s
Bit rate mode : Constant
Bit rate : 384 Kbps
Channel(s) : 6 channels
Channel positions : Front: L C R, Side: L R, LFE
Sampling rate : 48.0 KHz
Bit depth : 16 bits
Compression mode : Lossy
Stream size : 121 MiB (12%)
Title : Original
Language : English
Default : No
Forced : No




Релиз от: LoneCrusader



   Похожие торренты   Торрент   Размер 
В этой теме нет новых непрочитанных сообщений. Animal Planet: Неизведанные острова / Wildest Islands [01-08] (2012-2013) HDTVRip от HitWay | D

100 | 23

4.69 ГБ

В этой теме нет новых непрочитанных сообщений. Animal Planet: Неизведанные острова / Wildest Islands [01-07] (2012-2013) HDTVRip от HitWay | D

30 | 9

4.11 ГБ

В этой теме нет новых непрочитанных сообщений. Неизведанные острова / Animal Planet: Wildest Islands [01-10] (2012-2013) HDTV 1080i | D

35 | 22

29.18 ГБ

В этой теме нет новых непрочитанных сообщений. Animal Planet: Неизведанные острова / Wildest Islands [01-07] (2012-2013) HDTV 1080i

15 | 6

21.53 ГБ

В этой теме нет новых непрочитанных сообщений. Animal Planet: Неизведанные острова / Wildest Islands [01-05] (2012) IPTV

5 | 5

3.09 ГБ

В этой теме нет новых непрочитанных сообщений. Неизведанные острова [01-08] / Wildest Islands (2012-2013) HDTVRip 720p

149 | 74

10.13 ГБ

В этой теме нет новых непрочитанных сообщений. Animal Planet: Смертельные острова / Deadly islands [01-05] (2014) SATRip от HitWay | P1

26 | 38

2.53 ГБ




Вы не можете начинать темы
Вы не можете отвечать на сообщения
Вы не можете редактировать свои сообщения
Вы не можете удалять свои сообщения
Вы не можете добавлять вложения

Перейти:  
Для Мосгорсуда, Роскомнадзора и рекламодателей: mosgorsud-torrent[собачка]yandex.ru
 Вход
ppkBB3cker v.2 © 2008-2014 @ PPK
[ Time : 0.045s | 14 Queries | GZIP : On ]

Торрент трекер RUTOR.IN, Не можете зайти на rutor.org? Какой новый адрес рутор? Какое зеркало рутор? Не работает rutor.org и зеркала? Тогда наш торрент специально для вас. Rutor.in неофициальное зеркало rutor. В случае если у Вас заблокирован rutor или вдруг Вы не можете на него зайти, то Вы без труда сможете скачать бесплатно и без рекламы последние новинки кино, игр, сериалов и прочего у нас, на Rutor.in. Не нужно использовать прокси, чтобы зайти на рутор, достаточно воспользоваться нашим ресурсом. Все новые фильмы, игры, сериалы, книги и музыка за 2013 и 2014 годы через торрент бесплатно. Скачивайте фильмы в хорошем качестве, игры для пк, xbox, playstation без регистрации. У нас вы найдете новые Зарубежные сериалы и Русские сериалы 2013, 2014, 2015 годов. Оставайтесь с нами, качайте любимые фильмы, игры, сериалы, книги и музыку.