img image001 image001 image001 image001 image001 image001 image001 image001 image001 image001 image001 image001 image001 image001 image001

Planets Sun Sun Sun
Статистика раздачи
Автор: Снежана | Размер: 3.77 ГБ | Добавлен: 25 июл 2013
Раздают: 9    Качают: 11
Скачать торрент
Скачать торрент
Описание торрента

СообщениеДобавлено: 25 июл 2013 

#77

Год выпуска: 2010
Страна: Великобритания
Студия: BBC
Жанр: Документальный
Продолжительность: 4x ~00:59:00
Перевод: Профессиональный (двухголосый закадровый)

Описание: Это рассказ о тихой революции, влияющей на всех жителей планеты - Интернете. О том, как мы стали соучастниками в деле изменения нашего мира. Через 20 лет после своего создания Всемирная паутина предлагает нам беспрецедентный и свободный доступ к информации. Сеть связывает человечество. Но этот подарок имеет свою цену. Мы платим за этот продукт, возможно, дороже, чем за золото: интимной информацией о самих себе. Последние 10 лет Д-р Алекс Кротоски (Dr Aleksandra K Krotoski) исследует и описывает виртуальную революцию. Она встречается со всеми первопроходцами и ключевыми фигурами. Со всеми, от "Гугла" до "Фейсбука", от "Твиттера" до "Амазона". С людьми, которые помогли создать Всемирную паутину, влияющую на нашу жизнь.

1 Серия. Великое социальное равенство? / The Great Levelling?
2 Серия. Враг государства? / Enemy of the State?
3 Серия. Цена свободы / The Cost of Free
4 Серия. Гомо интернетикус? / Homo Interneticus?

Качество: HDTVRip
Формат: AVI
Видео кодек: XviD
Аудио кодек: MP3
Видео: 16:9, 2100 Кбит/сек, 720x400, 25,000 кадров/сек
Аудио: MP3, 2 канала, 192 Кбит/сек, 48,0 КГц

Общее
Полное имя : D:BBC The Virtual RevolutionBBC The Virtual Revolution (Ep 1) - The Great Levelling.[R.G.RealMT].avi
Формат : AVI
Формат/Информация : Audio Video Interleave
Размер файла : 951 Мбайт
Продолжительность : 57 м.
Общий поток : 2301 Кбит/сек
Программа кодирования : VirtualDubMod 1.5.10.3 | www.virtualdub-fr.org || (build 2550/release)
Библиотека кодирования : VirtualDubMod build 2550/release

Видео
Идентификатор : 0
Формат : MPEG-4 Visual
Профиль формата : Advanced Simple@L5
Параметр BVOP формата : 2
Параметр QPel формата : Нет
Параметр GMC формата : Без точки перехода
Параметр матрицы формата : Default (H.263)
Режим смешивания : Сжатый битовый поток
Идентификатор кодека : XVID
Идентификатор кодека/Подсказка : XviD
Продолжительность : 57 м.
Битрейт : 2100 Кбит/сек
Ширина : 720 пикселей
Высота : 400 пикселей
Соотношение сторон : 16:9
Частота кадров : 25,000 кадров/сек
Цветовое пространство : YUV
Субдискретизация насыщенности : 4:2:0
Битовая глубина : 8 бит
Тип развёртки : Прогрессивная
Метод сжатия : С потерями
Бит/(Пиксели*Кадры) : 0.292
Размер потока : 867 Мбайт (91%)
Библиотека кодирования : XviD 1.2.1 (UTC 2008-12-04)

Аудио
Идентификатор : 1
Формат : MPEG Audio
Версия формата : Version 1
Профиль формата : Layer 3
Идентификатор кодека : 55
Идентификатор кодека/Подсказка : MP3
Продолжительность : 57 м.
Вид битрейта : Постоянный
Битрейт : 192 Кбит/сек
Каналы : 2 канала
Частота : 48,0 КГц
Метод сжатия : С потерями
Размер потока : 79,3 Мбайт (8%)
Выравнивание : Соединение по промежуткам
Продолжительность промежутка : 40 мс. (1,00 видеокадр)
Время предзагрузки промежутка : 504 мс.
Библиотека кодирования : LAME3.99r
Настройки программы : -m s -V 4 -q 2 -lowpass 18.6 -b 192



Релиз от:



   Похожие торренты   Торрент   Размер 
В этой теме нет новых непрочитанных сообщений. BBC: Виртуальная революция / BBC: The Virtual Revolution [01-01 из 04] (2010) HDTVRip-AVC

5 | 1

6.83 ГБ

В этой теме нет новых непрочитанных сообщений. Виртуальная революция / Virtual Revolution (2016) WEB-DLRip | L

417 | 17

1.36 ГБ

В этой теме нет новых непрочитанных сообщений. Виртуальная страсть / Virtual Girl 2: Virtual Vegas (2001) DVDRip

173 | 26

689.22 МБ

В этой теме нет новых непрочитанных сообщений. Виртуальная пластическая хирургия / Virtual Plastic Surgery 1.2 (2010) PC

11 | 3

6.19 МБ

В этой теме нет новых непрочитанных сообщений. Революция / Revolution [01х01-11] (2012) HDTVRip | L2

1 | 5

6.24 ГБ

В этой теме нет новых непрочитанных сообщений. Революция / Revolution [01х19] (2013) HDTVRip | Kerob

3 | 2

338.51 МБ

В этой теме нет новых непрочитанных сообщений. Революция / Revolution [02x01-15 из 20] (2013-2014) HDTVRip | Sub

61 | 5

270.72 МБ




Вы не можете начинать темы
Вы не можете отвечать на сообщения
Вы не можете редактировать свои сообщения
Вы не можете удалять свои сообщения
Вы не можете добавлять вложения

Перейти:  
Для Мосгорсуда, Роскомнадзора и рекламодателей: mosgorsud-torrent[собачка]yandex.ru
 Вход
ppkBB3cker v.2 © 2008-2014 @ PPK
[ Time : 0.035s | 14 Queries | GZIP : Off ]

Торрент трекер RUTOR.IN, Не можете зайти на rutor.org? Какой новый адрес рутор? Какое зеркало рутор? Не работает rutor.org и зеркала? Тогда наш торрент специально для вас. Rutor.in неофициальное зеркало rutor. В случае если у Вас заблокирован rutor или вдруг Вы не можете на него зайти, то Вы без труда сможете скачать бесплатно и без рекламы последние новинки кино, игр, сериалов и прочего у нас, на Rutor.in. Не нужно использовать прокси, чтобы зайти на рутор, достаточно воспользоваться нашим ресурсом. Все новые фильмы, игры, сериалы, книги и музыка за 2013 и 2014 годы через торрент бесплатно. Скачивайте фильмы в хорошем качестве, игры для пк, xbox, playstation без регистрации. У нас вы найдете новые Зарубежные сериалы и Русские сериалы 2013, 2014, 2015 годов. Оставайтесь с нами, качайте любимые фильмы, игры, сериалы, книги и музыку.