img image001 image001 image001 image001 image001 image001 image001 image001 image001 image001 image001 image001 image001 image001 image001

Planets Sun Sun Sun
Статистика раздачи
Автор: Снежана | Размер: 2.83 ГБ | Добавлен: 24 июл 2013
Раздают: 21    Качают: 2
Скачать торрент
Скачать торрент
Описание торрента

СообщениеДобавлено: 24 июл 2013 

#77

Информация о фильме
Название: IMAX. Арктика 3D
Оригинальное название: IMAX. To the Arctic 3D
Год выхода: 2012
Жанр: Документальный, научно-познавательный, флора, фауна, путешествие
Режиссер: Грег МакГилври
В ролях: Мэрил Стрип

О фильме:
Необыкновенное путешествие на край земли, новый фильм IMAX «Арктика 3D» рассказывает историю любви к жизни и борьбы за выживание. В оригинальной версии картины звучит закадровый голос трехкратной обладательницы премии «Оскар», актрисы Мерил Стрип. Мы отправляемся в Арктику в компании белой медведицы и двух ее малышей. Перемены, пришедшие в арктическую пустыню, заставляют их идти вглубь континента, чтобы найти себе безопасное место для обитания. Увлекательные приключения медвежьей семьи на фоне тающих снегов, древних ледников, огромных водопадов и величественных заснеженных вершин помогут лучше узнать этих удивительных и отважных животных.

Страна: США
Студия: IMAX, MacGillivray Freeman Films, Warner Bros
Продолжительность: 00:40:25
Перевод: Профессиональный двухголосый, студия "Омикрон"

Файл
Источник: IMAX - To the Arctic (2012) Blu-ray 3D 1080p AVC DTS-HD 5.1-The3DTeam
Кодек: MPEG-4 AVC
Качество: BDRip (720p) от HDWinG!
Видео: 7000 Кбит/с, 1280x720, 23.976 кадр/с
Звук: Русский, английский (DTS, 6 ch, 1510 Кбит/с)
Субтитры: English SDH
Общее
Уникальный идентификатор : 178051710707035164230598743360655567460 (0x85F3831AF3B7D2CC80E4629248D7AA64)
Полное имя : C:КиноuploadIMAX.To.The.Arctic.2012.720p.BluRay.Rus.Eng.mkv
Формат : Matroska
Версия формата : Version 2
Размер файла : 2,83 Гбайт
Продолжительность : 40 м.
Общий поток : 10,0 Мбит/сек
Дата кодирования : UTC 2013-04-27 19:25:20
Программа кодирования : mkvmerge v4.0.0 ('The Stars were mine') сборка от Jun 6 2010 16:18:42
Библиотека кодирования : libebml v1.0.0 + libmatroska v1.0.0

Видео
Идентификатор : 1
Формат : AVC
Формат/Информация : Advanced Video Codec
Профиль формата : High@L4.1
Параметр CABAC формата : Да
Параметр ReFrames формата : 9 кадров
Идентификатор кодека : V_MPEG4/ISO/AVC
Продолжительность : 40 м.
Битрейт : 7000 Кбит/сек
Ширина : 1280 пикселей
Высота : 720 пикселей
Соотношение сторон : 16:9
Режим частоты кадров : Постоянный
Частота кадров : 23,976 кадра/сек
Цветовое пространство : YUV
Субдискретизация насыщенности : 4:2:0
Битовая глубина : 8 бит
Тип развёртки : Прогрессивная
Бит/(Пиксели*Кадры) : 0.317
Размер потока : 1,92 Гбайт (68%)
Заголовок : IMAX - To The Arctic (2012)
Библиотека кодирования : x264 core 130 r2273 b3065e6
Настройки программы : cabac=1 / ref=9 / deblock=1:-3:-3 / analyse=0x3:0x133 / me=umh / subme=10 / psy=1 / psy_rd=1.00:0.00 / mixed_ref=1 / me_range=16 / chroma_me=1 / trellis=2 / 8x8dct=1 / cqm=0 / deadzone=21,11 / fast_pskip=1 / chroma_qp_offset=-2 / threads=6 / lookahead_threads=1 / sliced_threads=0 / nr=0 / decimate=1 / interlaced=0 / bluray_compat=0 / constrained_intra=0 / bframes=10 / b_pyramid=0 / b_adapt=2 / b_bias=0 / direct=3 / weightb=1 / open_gop=0 / weightp=2 / keyint=240 / keyint_min=23 / scenecut=40 / intra_refresh=0 / rc_lookahead=40 / rc=2pass / mbtree=1 / bitrate=7000 / ratetol=1.0 / qcomp=0.60 / qpmin=0 / qpmax=69 / qpstep=4 / cplxblur=20.0 / qblur=0.5 / ip_ratio=1.40 / aq=1:0.80
Язык : English
Default : Нет
Forced : Нет

Аудио #1
Идентификатор : 2
Формат : DTS
Формат/Информация : Digital Theater Systems
Режим : 16
Параметр Endianness формата : Big
Идентификатор кодека : A_DTS
Продолжительность : 40 м.
Вид битрейта : Постоянный
Битрейт : 1509 Кбит/сек
Каналы : 6 каналов
Расположение каналов : Front: L C R, Side: L R, LFE
Частота : 48,0 КГц
Битовая глубина : 24 бит
Метод сжатия : С потерями
Размер потока : 436 Мбайт (15%)
Заголовок : Russian DTS 5.1
Язык : Russian
Default : Да
Forced : Нет

Аудио #2
Идентификатор : 3
Формат : DTS
Формат/Информация : Digital Theater Systems
Режим : 16
Параметр Endianness формата : Big
Идентификатор кодека : A_DTS
Продолжительность : 40 м.
Вид битрейта : Постоянный
Битрейт : 1509 Кбит/сек
Каналы : 6 каналов
Расположение каналов : Front: L C R, Side: L R, LFE
Частота : 48,0 КГц
Битовая глубина : 24 бит
Метод сжатия : С потерями
Задержка видео : 11 мс.
Размер потока : 436 Мбайт (15%)
Заголовок : English DTS 5.1
Язык : English
Default : Нет
Forced : Нет

Текст
Идентификатор : 4
Формат : UTF-8
Идентификатор кодека : S_TEXT/UTF8
Идентификатор кодека/Информация : UTF-8 Plain Text
Заголовок : English Subtitles (SDH)
Язык : English
Default : Нет
Forced : Нет

Меню
00:00:00.000 : en:00:00:00.000
00:09:45.668 : en:00:09:45.668
00:19:34.298 : en:00:19:34.298
00:29:35.107 : en:00:29:35.107
00:39:38.376 : en:00:39:38.376






Релиз от: by LibrarianA

Переведено и озвучено студией "Омикрон" специально для HDCLUB.

Перевод и озвучивание осуществлены в рамках сервиса "Озвучивание". Спонсоры: LibrarianA, Turko, farmazon, DeTorquemada, Snow_Leopard, kalina08, asound, mebelrus, qwert54326, vkudlaev, kimi, milen, Lissa, uZer.
Сохранены оригинальные чаптеры как на Blu-Ray.



   Похожие торренты   Торрент   Размер 
В этой теме нет новых непрочитанных сообщений. IMAX. Арктика 3D / IMAX. To the Arctic 3D (2012) BDRip 1080p | 3D-Video от HDClub

102 | 9

4.86 ГБ

В этой теме нет новых непрочитанных сообщений. IMAX. Арктика 3D / IMAX. To the Arctic 3D (2012) BDRip 1080p от HDClub

12 | 3

5.31 ГБ

В этой теме нет новых непрочитанных сообщений. IMAX. Арктика 3D / IMAX. To the Arctic 3D (2012) Blu-Ray 1080p от HDClub | P2

7 | 4

22.99 ГБ

В этой теме нет новых непрочитанных сообщений. IMAX. Арктика / IMAX. To the Arctic (2012) BDRip-AVC от ExKinoRay

10 | 1

1.1 ГБ

В этой теме нет новых непрочитанных сообщений. IMAX. Арктика 3D / IMAX. To the Arctic 3D (2012) HDRip от DeathN2 | P2

29 | 4

983.49 МБ

В этой теме нет новых непрочитанных сообщений. IMAX: Дельфины / IMAX: Dolphins (2000) BDRip 720p от ExKinoRay

2 | 2

1.98 ГБ

В этой теме нет новых непрочитанных сообщений. Дикая Арктика / Wildest Arctic [01-04 из 4] (2012) BDRip 720p от FilmRus

41 | 16

8.2 ГБ




Вы не можете начинать темы
Вы не можете отвечать на сообщения
Вы не можете редактировать свои сообщения
Вы не можете удалять свои сообщения
Вы не можете добавлять вложения

Перейти:  
Для Мосгорсуда, Роскомнадзора и рекламодателей: mosgorsud-torrent[собачка]yandex.ru
 Вход
ppkBB3cker v.2 © 2008-2014 @ PPK
[ Time : 0.035s | 17 Queries | GZIP : Off ]

cron