img image001 image001 image001 image001 image001 image001 image001 image001 image001 image001 image001 image001 image001 image001 image001

Planets Sun Sun Sun
Статистика раздачи
Автор: Снежана | Размер: 7.32 ГБ | Добавлен: 25 июл 2013
Раздают: 4    Качают: 4
Скачать торрент
Скачать торрент
Описание торрента

СообщениеДобавлено: 25 июл 2013 

#77

Информация о фильме
Название: Зеленый рай
Оригинальное название: Green Paradise
Год выхода: 2007
Жанр: Документальный
Режиссер: Жан Фромен / Jean Froment, Оливье Лямур / Olivier L'amour, Жан Фромен / Jean Froment, Паскаль Васселин / Pascal Vasselin, Мартин Бланшар / Martin Blanshar, Дэнис Бертран / Denis Bertrand, Жан-Ив Кашар / Jean-Yves Cachare

О фильме:
Самые красивые уголки планеты... Флиппины, острова Сива, Южной Африки, Эспаньола... Тысячи и тысячи островов и архипелагов, все это в документальном сериале "Зеленый Рай"...

01. Зеленый рай. Австралия-3. Волшебное восточное побережье Австралии
02. Зеленый рай. Багамские острова-3. В самом центре океана
03. Зеленый рай. Белиз-3. Джунгли и кораллы
04. Зеленый рай. Бразилия-1. Сохраненная красота
05. Зеленый рай. Бразилия-3. Бурные реки Бразилии
06. Зеленый рай. Доминиканская Республика-2. Карибское сокровище
07. Зеленый рай. Египет-1. Вода и песок
08. Зеленый рай. Индонезия-2. Дикие острова
09. Зеленый рай. Коста-Рика-2. Чистая природа
10. Зеленый рай. Мадагаскар-1. Многогранная земля
11. Зеленый рай. Марокко-2. Южное волшебство
12. Зеленый рай. Мексика-1. Пустыня между двух морей
13. Зеленый рай. Мозамбик-3. Африканский рассве
14. Зеленый рай. Намибия-3. Фауна и песок
15. Зеленый рай. Новая Каледония-2. Красный остров с зеленым сердцем
16. Зеленый рай. Сейшелы. Грёзы природы
17. Зеленый рай. Фиджи-3. Вкус островов Фиджи
18. Зеленый рай. Филиппины-3. Неисследованный архипелаг
19. Зеленый рай. Чили-2. В суровой и бескрайней земле
20. Зеленый рай. Южная Африка. Страна радуги


Страна: Франция
Студия: ARTE G.E.I.E.
Продолжительность: 20 х ~ 00:26:00
Перевод: Профессиональный ,двухголосый ,закадровый

Файл
Кодек: XviD
Качество: HDTVRip
Видео: 720 х 400 , 25,000 fps, ~ 1800 kbps
Звук: MP3, 48,0 khz, 192 kbps, 2 ch

Формат : AVI
Формат/Информация : Audio Video Interleave
Размер файла : 372 Мбайт
Продолжительность : 26 м.
Общий поток : 1998 Кбит/сек
Программа кодирования : VirtualDubMod 1.5.10.3 | www.virtualdub-fr.org || (build 2550/release)
Библиотека кодирования : VirtualDubMod build 2550/release
Видео
Идентификатор : 0
Формат : MPEG-4 Visual
Профиль формата : Advanced Simple@L5
Параметр BVOP формата : 1
Параметр QPel формата : Нет
Параметр GMC формата : Без точки перехода
Параметр матрицы формата : Default (H.263)
Идентификатор кодека : XVID
Идентификатор кодека/Подсказка : XviD
Продолжительность : 26 м.
Битрейт : 1797 Кбит/сек
Ширина : 720 пикселей
Высота : 400 пикселей
Соотношение сторон : 16:9
Частота кадров : 25,000 кадров/сек
Цветовое пространство : YUV
Субдискретизация насыщенности : 4:2:0
Битовая глубина : 8 бит
Тип развёртки : Прогрессивная
Метод сжатия : С потерями
Бит/(Пиксели*Кадры) : 0.250
Размер потока : 335 Мбайт (90%)
Библиотека кодирования : XviD 1.2.1 (UTC 2008-12-04)
Аудио
Идентификатор : 1
Формат : MPEG Audio
Версия формата : Version 1
Профиль формата : Layer 3
Идентификатор кодека : 55
Идентификатор кодека/Подсказка : MP3
Продолжительность : 26 м.
Вид битрейта : Постоянный
Битрейт : 192 Кбит/сек
Каналы : 2 канала
Частота : 48,0 КГц
Метод сжатия : С потерями
Размер потока : 35,8 Мбайт (10%)
Выравнивание : Соединение по промежуткам
Продолжительность промежутка : 40 мс. (1,00 видеокадр)
Время предзагрузки промежутка : 504 мс.
Библиотека кодирования : LAME3.99r
Настройки программы : -m s -V 4 -q 2 -lowpass 18.6 -b 192





   Похожие торренты   Торрент   Размер 
В этой теме нет новых непрочитанных сообщений. Зеленый Фонарь / Green Lantern (2011) HDTVRip | Трейлер

0 | 3

60.39 МБ

В этой теме нет новых непрочитанных сообщений. Зеленый чай / Green Tea (2003) DVDRip

0 | 1

2 ГБ

В этой теме нет новых непрочитанных сообщений. Зелёный Шершень / The Green Hornet (2011) Blu-Ray

0 | 2

35.21 ГБ

В этой теме нет новых непрочитанных сообщений. Зеленый ад / The Green Inferno (2013) WEB-DLRip-AVC | L1

436 | 44

658.26 МБ

В этой теме нет новых непрочитанных сообщений. Зеленый ад / The Green Inferno (2013) WEB-DL 720p | L1

1025 | 136

3.05 ГБ

В этой теме нет новых непрочитанных сообщений. Зеленый ад / The Green Inferno (2013) WEB-DLRip

792 | 58

1.37 ГБ

В этой теме нет новых непрочитанных сообщений. Зеленый лед / Green Ice (1981) DVDRip от NovaLan

6 | 2

1.47 ГБ




Вы не можете начинать темы
Вы не можете отвечать на сообщения
Вы не можете редактировать свои сообщения
Вы не можете удалять свои сообщения
Вы не можете добавлять вложения

Перейти:  
Для Мосгорсуда, Роскомнадзора и рекламодателей: mosgorsud-torrent[собачка]yandex.ru
 Вход
ppkBB3cker v.2 © 2008-2014 @ PPK
[ Time : 0.050s | 14 Queries | GZIP : Off ]

Торрент трекер RUTOR.IN, Не можете зайти на rutor.org? Какой новый адрес рутор? Какое зеркало рутор? Не работает rutor.org и зеркала? Тогда наш торрент специально для вас. Rutor.in неофициальное зеркало rutor. В случае если у Вас заблокирован rutor или вдруг Вы не можете на него зайти, то Вы без труда сможете скачать бесплатно и без рекламы последние новинки кино, игр, сериалов и прочего у нас, на Rutor.in. Не нужно использовать прокси, чтобы зайти на рутор, достаточно воспользоваться нашим ресурсом. Все новые фильмы, игры, сериалы, книги и музыка за 2013 и 2014 годы через торрент бесплатно. Скачивайте фильмы в хорошем качестве, игры для пк, xbox, playstation без регистрации. У нас вы найдете новые Зарубежные сериалы и Русские сериалы 2013, 2014, 2015 годов. Оставайтесь с нами, качайте любимые фильмы, игры, сериалы, книги и музыку.