img image001 image001 image001 image001 image001 image001 image001 image001 image001 image001 image001 image001 image001 image001 image001

Planets Sun Sun Sun
Статистика раздачи
Автор: Снежана | Размер: 1.67 ГБ | Добавлен: 25 июл 2013
Раздают: 124    Качают: 10
Скачать торрент
Скачать торрент
Описание торрента

СообщениеДобавлено: 25 июл 2013 

#77

Год выпуска: 2009
Страна: Франция
Жанр: Документальный, Драма, Семейный
Продолжительность: 01:39:36
Перевод: Профессиональный (полное дублирование)
Русские Субтитры: нет

Режиссер: Жак Перрен, Жак Клюзо

Описание: «Океаны» — масштабный проект Жака Перрена — создателя знаменитых «Птиц» и «Микрокосмоса». Фильм о безграничности и свободе подводного мира, репортаж из другого мира, чуждого человеку, но полного жизни. Создатели отнеслись к океану как к живому, разумному существу, и смогли передать это ощущение зрителям.
Как и предыдущие работы Перрена и его соавтора Жака Клюзо, «Океаны* перевернул понятие «документальный фильм о природе». В нём подводные жители становятся героями триллера и боевика, захватывающих погонь и комедий.
Фильм «Океаны» создавался в течение пяти лет, съемки велись в разных уголках планеты. Благодаря огромному для документального кино бюджету — 80 млн. долларов — для фильма были разработаны совершенно новые технологии для съёмки под водой.
Съёмочная группа множество раз обогнула земной шар: oт Аргентины до Японии, oт Калифорнии до Мозамбика, от Северного и до Южного полюса. О многом из того, что было снято, не подозревали даже океанологи-консультанты.
Фильм поразил воображение зарубежных зрителей и кинокритиков. Ощущения от просмотра «Океанов» сравнивают с американскими горками ИЛИ путешествием на другую планету.

Русский текст читает: Олег Басилашвили



Качество: HDRip
Формат:AVI
Видео кодек: XviD
Аудио кодек: MP3
Видео: 16:9, 2097 Кбит/сек, 720x400, 23,976 кадра/сек
Аудио: MP3, 2 канала, 192 Кбит/сек, 48,0 КГц

Общее
Полное имя : D:Oceans.[R.G.RealMT].avi
Формат : AVI
Формат/Информация : Audio Video Interleave
Размер файла : 1,67 Гбайт
Продолжительность : 1 ч. 43 м.
Общий поток : 2299 Кбит/сек
Программа кодирования : VirtualDubMod 1.5.10.3 | www.virtualdub-fr.org || (build 2550/release)
Библиотека кодирования : VirtualDubMod build 2550/release

Видео
Идентификатор : 0
Формат : MPEG-4 Visual
Профиль формата : Advanced Simple@L5
Параметр BVOP формата : 2
Параметр QPel формата : Нет
Параметр GMC формата : Без точки перехода
Параметр матрицы формата : Default (H.263)
Режим смешивания : Сжатый битовый поток
Идентификатор кодека : XVID
Идентификатор кодека/Подсказка : XviD
Продолжительность : 1 ч. 43 м.
Битрейт : 2097 Кбит/сек
Ширина : 720 пикселей
Высота : 400 пикселей
Соотношение сторон : 16:9
Частота кадров : 23,976 кадра/сек
Цветовое пространство : YUV
Субдискретизация насыщенности : 4:2:0
Битовая глубина : 8 бит
Тип развёртки : Прогрессивная
Метод сжатия : С потерями
Бит/(Пиксели*Кадры) : 0.304
Размер потока : 1,52 Гбайт (91%)
Библиотека кодирования : XviD 1.2.1 (UTC 2008-12-04)

Аудио
Идентификатор : 1
Формат : MPEG Audio
Версия формата : Version 1
Профиль формата : Layer 3
Идентификатор кодека : 55
Идентификатор кодека/Подсказка : MP3
Продолжительность : 1 ч. 43 м.
Вид битрейта : Постоянный
Битрейт : 192 Кбит/сек
Каналы : 2 канала
Частота : 48,0 КГц
Метод сжатия : С потерями
Размер потока : 143 Мбайт (8%)
Выравнивание : Соединение по промежуткам
Продолжительность промежутка : 42 мс. (1,00 видеокадр)
Время предзагрузки промежутка : 504 мс.
Библиотека кодирования : LAME3.99r
Настройки программы : -m s -V 4 -q 2 -lowpass 18.6 -b 192



Релиз от:



   Похожие торренты   Торрент   Размер 
В этой теме нет новых непрочитанных сообщений. Океаны / Océans / Oceans (2009) HDRip от Youtracker

10 | 1

748.27 МБ

В этой теме нет новых непрочитанных сообщений. Океаны / Oceans (2009) HDRip | Лицензия

7 | 6

1.37 ГБ

В этой теме нет новых непрочитанных сообщений. Океаны / Océans / Oceans (2009) DVD9 от Youtracker

17 | 3

7.43 ГБ

В этой теме нет новых непрочитанных сообщений. Королевство океанов / Kingdom of the Oceans / Le Peuple des Océans [01-04 из 04] (2011) HDRip от R.G.RealMT | P1

8 | 3

3.5 ГБ

В этой теме нет новых непрочитанных сообщений. Океаны / Oceans (2009) DVD9

7 | 2

7.43 ГБ

В этой теме нет новых непрочитанных сообщений. Океаны / Océans (2009) BDRip-AVC by Infineon

4 | 3

2.91 ГБ

В этой теме нет новых непрочитанных сообщений. Океаны / Oceans (2009) BDRip 720p

108 | 16

4.35 ГБ




Вы не можете начинать темы
Вы не можете отвечать на сообщения
Вы не можете редактировать свои сообщения
Вы не можете удалять свои сообщения
Вы не можете добавлять вложения

Перейти:  
Для Мосгорсуда, Роскомнадзора и рекламодателей: mosgorsud-torrent[собачка]yandex.ru
 Вход
ppkBB3cker v.2 © 2008-2014 @ PPK
[ Time : 0.103s | 14 Queries | GZIP : Off ]

Торрент трекер RUTOR.IN, Не можете зайти на rutor.org? Какой новый адрес рутор? Какое зеркало рутор? Не работает rutor.org и зеркала? Тогда наш торрент специально для вас. Rutor.in неофициальное зеркало rutor. В случае если у Вас заблокирован rutor или вдруг Вы не можете на него зайти, то Вы без труда сможете скачать бесплатно и без рекламы последние новинки кино, игр, сериалов и прочего у нас, на Rutor.in. Не нужно использовать прокси, чтобы зайти на рутор, достаточно воспользоваться нашим ресурсом. Все новые фильмы, игры, сериалы, книги и музыка за 2013 и 2014 годы через торрент бесплатно. Скачивайте фильмы в хорошем качестве, игры для пк, xbox, playstation без регистрации. У нас вы найдете новые Зарубежные сериалы и Русские сериалы 2013, 2014, 2015 годов. Оставайтесь с нами, качайте любимые фильмы, игры, сериалы, книги и музыку.