img image001 image001 image001 image001 image001 image001 image001 image001 image001 image001 image001 image001 image001 image001 image001

Planets Sun Sun Sun
Статистика раздачи
Автор: Снежана | Размер: 9.59 ГБ | Добавлен: 25 июл 2013
Раздают: 14    Качают: 5
Скачать торрент
Скачать торрент
Описание торрента

СообщениеДобавлено: 25 июл 2013 

Планета-океан / Planet Ocean
«Времени для выбора уже не осталось!»


#77

Страна: Франция
Студия: Omega Watches
Жанр: документальный
Год выпуска: 2012
Продолжительность: 01:32:45

Перевод: русский дубляж [Лицензия, BD EUR]
Оригинальная аудиодорожка: английская
Русские субтитры: есть
Режиссер: Ян Артус Бертранд, Мишель Пити / Yann Arthus-Bertrand, Michael Pitiot
В ролях: Джош Дюамель


Фильм призван объяснить некоторые из величайших природных загадок нашей планеты и ещё ярче показать важность того, чтобы человечество училось жить в гармонии с океаном.

Тип релиза: BDRip 1080p
Контейнер: MKV
Видео кодек: x264
Аудио кодек: AC3
Видео: AVC / High@L4.1 / 23,976 fps / 1920x1080p / 13,5 Mbps / 0.272
Аудио 1: AC3 / 5.1 ch / 640 kbps / Русский дубляж [BD EUR]
Аудио 2: AC3 / 5.1 ch / 640 kbps / Английский original [BD EUR]
Субтитры: [softsub SRT]
Русские Full, BD EUR
Русские Full, [авторский, В. Курдов]
Английские SDH, BD EUR
Дополнительно: Сохранены оригинальные чаптеры как на Blu-ray
Рип (видеоряд) от: Killbrain


Раздача от:











x264 [info]: frame I:695 Avg QP:16.33 size:222990
x264 [info]: frame P:29209 Avg QP:18.46 size:129489
x264 [info]: frame B:103865 Avg QP:20.69 size: 52690

Общее
Уникальный идентификатор : 253670099604502763197128916932181122077 (0xBED715866C9823949244688279045C1D)
Полное имя : F:Скачка торрентPlanet.Ocean.2012.BDRip1080p(Killbrain).mkv
Формат : Matroska
Версия формата : Version 4 / Version 2
Размер файла : 9,59 Гбайт
Продолжительность : 1 ч. 32 м.
Общий поток : 14,8 Мбит/сек
Название фильма : Planet Ocean (2012) by Killbrain
Дата кодирования : UTC 2013-05-03 21:03:09
Программа кодирования : mkvmerge v6.2.0 ('Promised Land') built on Apr 28 2013 12:22:01
Библиотека кодирования : libebml v1.3.0 + libmatroska v1.4.0

Видео
Идентификатор : 1
Формат : AVC
Формат/Информация : Advanced Video Codec
Профиль формата : High@L4.1
Параметр CABAC формата : Да
Параметр ReFrames формата : 4 кадра
Идентификатор кодека : V_MPEG4/ISO/AVC
Продолжительность : 1 ч. 32 м.
Битрейт : 13,5 Мбит/сек
Ширина : 1920 пикселей
Высота : 1080 пикселей
Соотношение сторон : 16:9
Режим частоты кадров : Постоянный
Частота кадров : 23,976 кадра/сек
Цветовое пространство : YUV
Субдискретизация насыщенности : 4:2:0
Битовая глубина : 8 бит
Тип развёртки : Прогрессивная
Бит/(Пиксели*Кадры) : 0.272
Размер потока : 8,57 Гбайт (89%)
Заголовок : Planet Ocean (2012)
Библиотека кодирования : x264 core 132 r2309 3b1f1f7
Настройки программы : cabac=1 / ref=4 / deblock=1:-3:-3 / analyse=0x3:0x113 / me=umh / subme=10 / psy=1 / psy_rd=1.00:0.15 / mixed_ref=1 / me_range=16 / chroma_me=1 / trellis=2 / 8x8dct=1 / cqm=0 / deadzone=21,11 / fast_pskip=0 / chroma_qp_offset=-3 / threads=3 / lookahead_threads=1 / sliced_threads=0 / nr=0 / decimate=0 / interlaced=0 / bluray_compat=0 / constrained_intra=0 / bframes=6 / b_pyramid=2 / b_adapt=2 / b_bias=0 / direct=3 / weightb=1 / open_gop=0 / weightp=2 / keyint=240 / keyint_min=24 / scenecut=40 / intra_refresh=0 / rc_lookahead=60 / rc=2pass / mbtree=0 / bitrate=13500 / ratetol=1.0 / qcomp=0.65 / qpmin=0 / qpmax=69 / qpstep=4 / cplxblur=20.0 / qblur=0.5 / vbv_maxrate=40000 / vbv_bufsize=30000 / nal_hrd=none / ip_ratio=1.40 / pb_ratio=1.30 / aq=1:0.80
Язык : English
Default : Да
Forced : Нет

Аудио #1
Идентификатор : 2
Формат : AC-3
Формат/Информация : Audio Coding 3
Расширение режима : CM (complete main)
Параметр Endianness формата : Big
Идентификатор кодека : A_AC3
Продолжительность : 1 ч. 32 м.
Вид битрейта : Постоянный
Битрейт : 640 Кбит/сек
Каналы : 6 каналов
Расположение каналов : Front: L C R, Side: L R, LFE
Частота : 48,0 КГц
Битовая глубина : 16 бит
Метод сжатия : С потерями
Размер потока : 425 Мбайт (4%)
Заголовок : AC3 / 5.1 ch / 640 kbps / Русский дубляж, BD EUR
Язык : Russian
Default : Да
Forced : Нет

Аудио #2
Идентификатор : 3
Формат : AC-3
Формат/Информация : Audio Coding 3
Расширение режима : CM (complete main)
Параметр Endianness формата : Big
Идентификатор кодека : A_AC3
Продолжительность : 1 ч. 32 м.
Вид битрейта : Постоянный
Битрейт : 640 Кбит/сек
Каналы : 6 каналов
Расположение каналов : Front: L C R, Side: L R, LFE
Частота : 48,0 КГц
Битовая глубина : 16 бит
Метод сжатия : С потерями
Размер потока : 425 Мбайт (4%)
Заголовок : AC3 / 5.1 ch / 640 kbps / Английский original, BD EUR
Язык : English
Default : Нет
Forced : Нет

Текст #1
Идентификатор : 4
Формат : UTF-8
Идентификатор кодека : S_TEXT/UTF8
Идентификатор кодека/Информация : UTF-8 Plain Text
Заголовок : Full, BD EUR
Язык : Russian
Default : Нет
Forced : Нет

Текст #2
Идентификатор : 5
Формат : UTF-8
Идентификатор кодека : S_TEXT/UTF8
Идентификатор кодека/Информация : UTF-8 Plain Text
Заголовок : Full, [авторский, В. Курдов]
Язык : Russian
Default : Нет
Forced : Нет

Текст #3
Идентификатор : 6
Формат : UTF-8
Идентификатор кодека : S_TEXT/UTF8
Идентификатор кодека/Информация : UTF-8 Plain Text
Заголовок : SDH, BD EUR
Язык : English
Default : Нет
Forced : Нет

Меню
00:00:00.000 : :Chapter 01
00:09:21.978 : :Chapter 02
00:18:38.492 : :Chapter 03
00:29:39.986 : :Chapter 04
00:41:22.438 : :Chapter 05
00:53:24.701 : :Chapter 06
00:58:35.720 : :Chapter 07
01:08:28.771 : :Chapter 08
01:19:48.158 : :Chapter 09
01:26:22.135 : :Chapter 10







   Похожие торренты   Торрент   Размер 
В этой теме нет новых непрочитанных сообщений. Планета-океан / Planet Ocean (2012) BDRip от HQCLUB | Лицензия

77 | 5

1.47 ГБ

В этой теме нет новых непрочитанных сообщений. Планета-океан / Planet Ocean (2012) BDRip 720p | Лицензия

8 | 2

6.74 ГБ

В этой теме нет новых непрочитанных сообщений. Планета-океан / Planet Ocean (2012) BDRip 720p от HQCLUB | Лицензия

120 | 7

4.7 ГБ

В этой теме нет новых непрочитанных сообщений. Планета-океан / Planet Ocean (2012) BDRip 1080p от NoLimits-Team

58 | 6

4.37 ГБ

В этой теме нет новых непрочитанных сообщений. Планета-океан / Planet Ocean (2012) DVD9 R5 от New-team | D | лицензия

25 | 5

5.69 ГБ

В этой теме нет новых непрочитанных сообщений. Планета-океан / Planet Ocean (2012) BDRip 720p от NoLimits-Team

5 | 2

2.18 ГБ

В этой теме нет новых непрочитанных сообщений. Планета-океан / Planet Ocean (2012) HDRip | P1

246 | 3

1.46 ГБ




Вы не можете начинать темы
Вы не можете отвечать на сообщения
Вы не можете редактировать свои сообщения
Вы не можете удалять свои сообщения
Вы не можете добавлять вложения

Перейти:  
Для Мосгорсуда, Роскомнадзора и рекламодателей: mosgorsud-torrent[собачка]yandex.ru
 Вход
ppkBB3cker v.2 © 2008-2014 @ PPK
[ Time : 0.034s | 16 Queries | GZIP : Off ]

Торрент трекер RUTOR.IN, Не можете зайти на rutor.org? Какой новый адрес рутор? Какое зеркало рутор? Не работает rutor.org и зеркала? Тогда наш торрент специально для вас. Rutor.in неофициальное зеркало rutor. В случае если у Вас заблокирован rutor или вдруг Вы не можете на него зайти, то Вы без труда сможете скачать бесплатно и без рекламы последние новинки кино, игр, сериалов и прочего у нас, на Rutor.in. Не нужно использовать прокси, чтобы зайти на рутор, достаточно воспользоваться нашим ресурсом. Все новые фильмы, игры, сериалы, книги и музыка за 2013 и 2014 годы через торрент бесплатно. Скачивайте фильмы в хорошем качестве, игры для пк, xbox, playstation без регистрации. У нас вы найдете новые Зарубежные сериалы и Русские сериалы 2013, 2014, 2015 годов. Оставайтесь с нами, качайте любимые фильмы, игры, сериалы, книги и музыку.