img image001 image001 image001 image001 image001 image001 image001 image001 image001 image001 image001 image001 image001 image001 image001

Planets Sun Sun Sun
Статистика раздачи
Автор: Снежана | Размер: 7.95 ГБ | Добавлен: 25 июл 2013
Раздают: 4    Качают: 18
Скачать торрент
Скачать торрент
Описание торрента

СообщениеДобавлено: 25 июл 2013 

#77

Информация о фильме
Название: Жажда мира
Оригинальное название: La soif du monde
Год выхода: 2012
Жанр: Документальный, научно-познавательный, природа, путешествие, исследование
Режиссер: Ян Артус Бертранд
Сюжет фильма:

На этот раз знаменитый фотограф смотрит на одну из основных проблем для выживания человека: Вода. Сегодня, на фоне резкого увеличения спроса, рост численности населения в мире и растущее влияние изменения климата, вода стала одним из самых ценных природных ресурсов нашей планеты. Верный своей репутации Янна Артюса-Бертрана, жаждущий мира, снятый в 20 странах, показывает, таинственный и увлекательный мир пресной воды через впечатляющие антенну изображений, снятых в регионах, которые являются труднодоступными, как и Южного Судана или Северной Конго. Это также позволяет нам открыть для себя самые красивые пейзажи на нашей планете, озер, рек и водно-болотных угодий созданых водой.




Выпущено: Франция, Hope Production, Calt Production, France TelevisionPictures (III)
Продолжительность: 01:31:10
Перевод: Профессиональное (одноголосое) [В.Курдов]
Файл
Качество: BDRip 1080p (исходник Blu-ray Disc)
Видео: 1920x1080, 11.8 мбит/сек, 23.976 кадр/сек, AVC, x264, 0.238 Бит/(Пиксели*Кадры), 2-pass
Аудио: AC-3, 640 Кбит/сек, 6 канала(ов), 48,0 КГц
Чаптеры: есть



Format : Matroska
Format version : Version 4 / Version 2
File size : 7.95 GiB
Duration : 1h 31mn
Overall bit rate : 12.5 Mbps
Movie name : Жажда мира.(2012).BDRip.1080p.от NoLimits-Team
Encoded date : UTC 2013-05-10 09:14:51
Writing application : mkvmerge v6.2.0 ('Promised Land') built on Apr 28 2013 12:22:01
Writing library : libebml v1.3.0 + libmatroska v1.4.0

Video
ID : 1
Format : AVC
Format/Info : Advanced Video Codec
Format profile : High@L4.1
Format settings, CABAC : Yes
Format settings, ReFrames : 4 frames
Codec ID : V_MPEG4/ISO/AVC
Duration : 1h 31mn
Bit rate : 11.8 Mbps
Width : 1 920 pixels
Height : 1 080 pixels
Display aspect ratio : 16:9
Frame rate mode : Constant
Frame rate : 23.976 fps
Color space : YUV
Chroma subsampling : 4:2:0
Bit depth : 8 bits
Scan type : Progressive
Bits/(Pixel*Frame) : 0.238
Stream size : 7.39 GiB (93%)
Title : Жажда мира.(2012).BDRip.1080p.от NoLimits-Team
Writing library : x264 core 132 r2310 76a5c3a
Encoding settings : cabac=1 / ref=4 / deblock=1:0:0 / analyse=0x3:0x113 / me=umh / subme=10 / psy=1 / psy_rd=1.00:0.10 / mixed_ref=1 / me_range=32 / chroma_me=1 / trellis=2 / 8x8dct=1 / cqm=0 / deadzone=21,11 / fast_pskip=0 / chroma_qp_offset=-3 / threads=6 / lookahead_threads=1 / sliced_threads=0 / nr=0 / decimate=0 / interlaced=0 / bluray_compat=0 / constrained_intra=0 / bframes=5 / b_pyramid=2 / b_adapt=2 / b_bias=0 / direct=3 / weightb=1 / open_gop=0 / weightp=2 / keyint=240 / keyint_min=23 / scenecut=40 / intra_refresh=0 / rc_lookahead=60 / rc=2pass / mbtree=1 / bitrate=11845 / ratetol=1.0 / qcomp=0.60 / qpmin=0 / qpmax=69 / qpstep=4 / cplxblur=20.0 / qblur=0.5 / ip_ratio=1.40 / aq=1:0.95
Language : English
Default : Yes
Forced : No

Audio
ID : 2
Format : AC-3
Format/Info : Audio Coding 3
Mode extension : CM (complete main)
Format settings, Endianness : Big
Codec ID : A_AC3
Duration : 1h 31mn
Bit rate mode : Constant
Bit rate : 640 Kbps
Channel(s) : 6 channels
Channel positions : Front: L C R, Side: L R, LFE
Sampling rate : 48.0 KHz
Bit depth : 16 bits
Compression mode : Lossy
Stream size : 417 MiB (5%)
Title : Профессиональное (одноголосое) [В.Курдов]
Language : Russian
Default : Yes
Forced : No

Menu
00:00:00.000 : en:Chapter 01
00:09:25.898 : en:Chapter 02
00:19:39.094 : en:Chapter 03
00:29:29.934 : en:Chapter 04
00:38:07.702 : en:Chapter 05
00:48:48.050 : en:Chapter 06
00:58:58.535 : en:Chapter 07
01:04:33.870 : en:Chapter 08
01:09:55.524 : en:Chapter 09
01:21:25.046 : en:Chapter 10


Релиз Группа | Автор Рипа:



   Похожие торренты   Торрент   Размер 
В этой теме нет новых непрочитанных сообщений. Жажда мира / La soif du monde (2012) BDRip 720p от NoLimits-Team

8 | 2

4.37 ГБ

В этой теме нет новых непрочитанных сообщений. Жажда мира / La soif du monde (2012) Blu-Ray 1080p

4 | 18

20.29 ГБ

В этой теме нет новых непрочитанных сообщений. Жажда мира / La soif du monde (2012) BDRip-AVC от ExKinoRay

38 | 7

2.2 ГБ

В этой теме нет новых непрочитанных сообщений. Жажда мира / La soif du monde (2012) HDRip | P1

3 | 2

1.37 ГБ

В этой теме нет новых непрочитанных сообщений. Жажда мира / La soif du monde (2012) HDTVRip-AVC от Тorrent-Хzona | А1

5 | 2

1.36 ГБ

В этой теме нет новых непрочитанных сообщений. Жажда золота / La soif de l'or (1993) DVDRip

84 | 9

1.75 ГБ

В этой теме нет новых непрочитанных сообщений. Жажда золота / La soif de l'or (1993) DVD5

0 | 3

4.23 ГБ




Вы не можете начинать темы
Вы не можете отвечать на сообщения
Вы не можете редактировать свои сообщения
Вы не можете удалять свои сообщения
Вы не можете добавлять вложения

Перейти:  
Для Мосгорсуда, Роскомнадзора и рекламодателей: mosgorsud-torrent[собачка]yandex.ru
 Вход
ppkBB3cker v.2 © 2008-2014 @ PPK
[ Time : 0.053s | 14 Queries | GZIP : Off ]

Торрент трекер RUTOR.IN, Не можете зайти на rutor.org? Какой новый адрес рутор? Какое зеркало рутор? Не работает rutor.org и зеркала? Тогда наш торрент специально для вас. Rutor.in неофициальное зеркало rutor. В случае если у Вас заблокирован rutor или вдруг Вы не можете на него зайти, то Вы без труда сможете скачать бесплатно и без рекламы последние новинки кино, игр, сериалов и прочего у нас, на Rutor.in. Не нужно использовать прокси, чтобы зайти на рутор, достаточно воспользоваться нашим ресурсом. Все новые фильмы, игры, сериалы, книги и музыка за 2013 и 2014 годы через торрент бесплатно. Скачивайте фильмы в хорошем качестве, игры для пк, xbox, playstation без регистрации. У нас вы найдете новые Зарубежные сериалы и Русские сериалы 2013, 2014, 2015 годов. Оставайтесь с нами, качайте любимые фильмы, игры, сериалы, книги и музыку.