img image001 image001 image001 image001 image001 image001 image001 image001 image001 image001 image001 image001 image001 image001 image001

Planets Sun Sun Sun
Статистика раздачи
Автор: Снежана | Размер: 6.52 ГБ | Добавлен: 25 июл 2013
Раздают: 18    Качают: 7
Скачать торрент
Скачать торрент
Описание торрента

СообщениеДобавлено: 25 июл 2013 

#77

Патагония: По следам Дарвина в 3Д / Patagonien 3D


#77

Страна: Германия
Студия: New KSM
Жанр: документальный
Год выпуска: 2012
Продолжительность: 00:52:31

Перевод: русский (одноголосый, закадровый) [лицензия, BD3D RUS]
Иностранная аудиодорожка: английская
Русские субтитры: есть
Режиссер: Норберт Вандер / Norbert Vander


Патагония — страна бесконечных просторов и нетронутой природы, куда попадают очень немногие. Следуя по маршруту путешествия выдающегося ученого 19 века Чарльза Дарвина, фильм показывает удивительный мир животных и захватывающие дух пейзажи. Полуостров Вальдес — это настоящий райский уголок на восточном побережье Патагонии, который находится под охраной ЮНЕСКО. Вы сможете встретиться с китами, посетить одну из последних колоний морских слонов и понаблюдать за несчетными колониями Магеллановых пингвинов. Вам предоставляется возможность насладиться зрелищем одного из красивейших ландшафтов на Земле.

Качество: BDRip 1080p
Контейнер: MKV
Формат 3D: Half OverUnder / Вертикальная анаморфная стереопара
Порядок ракурсов: левый ракурс первый
Поддержка автоматического запуска 3D на вашем TV (frame paking): да
Видео кодек: x264
Аудио кодек: AC3
Видео: AVC / High@L4.1 / 23,976 fps / 1920x1080p / 16,5 Mbps / 0.332
Аудио 1: AC3 / 5.1 ch / 640 kbps / Русский VO [BD BD3D RUS]
Аудио 2: AC3 / 5.1 ch / 640 kbps / Английский VO [BD BD3D RUS]
Субтитры: (softsub, SRT)
Русские Full, BD3D RUS
Дополнительно: Сохранены оригинальные чаптеры как на Blu-ray
Рип (видеоряд) от: Killbrain


Раздача от:










x264 [info]: frame I:446 Avg QP:16.58 size:362201
x264 [info]: frame P:18039 Avg QP:18.61 size:161325
x264 [info]: frame B:57067 Avg QP:20.62 size: 60014

Общее
Уникальный идентификатор : 233294424539993058773267211038006095641 (0xAF82DF2ECF658CCC83A1A352D29EAF19)
Полное имя : F:Скачка торрентPatagonien.3D.2012.BDRip1080p.halfOU(Killbrain).mkv
Формат : Matroska
Версия формата : Version 4 / Version 2
Размер файла : 6,52 Гбайт
Продолжительность : 52 м.
Общий поток : 17,8 Мбит/сек
Название фильма : Patagonien 3D (2012) by Killbrain
Дата кодирования : UTC 2013-05-10 17:40:41
Программа кодирования : mkvmerge v6.2.0 ('Promised Land') built on Apr 28 2013 12:22:01
Библиотека кодирования : libebml v1.3.0 + libmatroska v1.4.0

Видео
Идентификатор : 1
Формат : AVC
Формат/Информация : Advanced Video Codec
Профиль формата : High@L4.1
Параметр CABAC формата : Да
Параметр ReFrames формата : 4 кадра
Идентификатор кодека : V_MPEG4/ISO/AVC
Продолжительность : 52 м.
Битрейт : 16,5 Мбит/сек
Ширина : 1920 пикселей
Высота : 1080 пикселей
Соотношение сторон : 16:9
Режим частоты кадров : Постоянный
Частота кадров : 23,976 кадра/сек
Цветовое пространство : YUV
Субдискретизация насыщенности : 4:2:0
Битовая глубина : 8 бит
Тип развёртки : Прогрессивная
Бит/(Пиксели*Кадры) : 0.332
Размер потока : 5,92 Гбайт (91%)
Заголовок : Patagonien 3D (2012)
Библиотека кодирования : x264 core 132 r2310 76a5c3a
Настройки программы : cabac=1 / ref=4 / deblock=1:-2:-2 / analyse=0x3:0x113 / me=umh / subme=9 / psy=1 / psy_rd=1.00:0.40 / mixed_ref=1 / me_range=16 / chroma_me=1 / trellis=2 / 8x8dct=1 / cqm=0 / deadzone=21,11 / fast_pskip=0 / chroma_qp_offset=-4 / threads=3 / lookahead_threads=1 / sliced_threads=0 / nr=0 / decimate=0 / interlaced=0 / bluray_compat=0 / constrained_intra=0 / bframes=6 / b_pyramid=2 / b_adapt=2 / b_bias=0 / direct=3 / weightb=1 / open_gop=0 / weightp=2 / keyint=240 / keyint_min=24 / scenecut=40 / intra_refresh=0 / rc_lookahead=60 / rc=2pass / mbtree=0 / bitrate=16500 / ratetol=1.0 / qcomp=0.65 / qpmin=0 / qpmax=69 / qpstep=4 / cplxblur=20.0 / qblur=0.5 / vbv_maxrate=40000 / vbv_bufsize=30000 / nal_hrd=none / frame-packing=4 / ip_ratio=1.40 / pb_ratio=1.30 / aq=1:0.70
Язык : English
Default : Да
Forced : Нет

Аудио #1
Идентификатор : 2
Формат : AC-3
Формат/Информация : Audio Coding 3
Расширение режима : CM (complete main)
Параметр Endianness формата : Big
Идентификатор кодека : A_AC3
Продолжительность : 52 м.
Вид битрейта : Постоянный
Битрейт : 640 Кбит/сек
Каналы : 6 каналов
Расположение каналов : Front: L C R, Side: L R, LFE
Частота : 48,0 КГц
Битовая глубина : 16 бит
Метод сжатия : С потерями
Размер потока : 240 Мбайт (4%)
Заголовок : AC3 / 5.1 ch / 640 kbps / Русский VO, BD3D RUS
Язык : Russian
Default : Да
Forced : Нет

Аудио #2
Идентификатор : 3
Формат : AC-3
Формат/Информация : Audio Coding 3
Расширение режима : CM (complete main)
Параметр Endianness формата : Big
Идентификатор кодека : A_AC3
Продолжительность : 52 м.
Вид битрейта : Постоянный
Битрейт : 640 Кбит/сек
Каналы : 6 каналов
Расположение каналов : Front: L C R, Side: L R, LFE
Частота : 48,0 КГц
Битовая глубина : 16 бит
Метод сжатия : С потерями
Размер потока : 240 Мбайт (4%)
Заголовок : AC3 / 5.1 ch / 640 kbps / Английский VO, BD3D RUS
Язык : English
Default : Нет
Forced : Нет

Текст
Идентификатор : 4
Формат : UTF-8
Идентификатор кодека : S_TEXT/UTF8
Идентификатор кодека/Информация : UTF-8 Plain Text
Заголовок : Full, BD3D RUS
Язык : Russian
Default : Нет
Forced : Нет

Меню
00:00:00.000 : :Chapter 01
00:06:19.545 : :Chapter 02
00:11:51.836 : :Chapter 03
00:17:16.285 : :Chapter 04
00:23:53.181 : :Chapter 05
00:30:19.484 : :Chapter 06
00:35:56.946 : :Chapter 07
00:42:15.032 : :Chapter 08





   Похожие торренты   Торрент   Размер 
В этой теме нет новых непрочитанных сообщений. Патагония: По следам Дарвина (часть 2) / Patagonien (teil 2) / Patagonia (part 2) (2012) BDRip 1080p | 3D-Video | halfOU

4 | 2

6.98 ГБ

В этой теме нет новых непрочитанных сообщений. Патагония: По следам Дарвина / Patagonien (2012) BDRip от Rulya74

10 | 1

1.05 ГБ

В этой теме нет новых непрочитанных сообщений. Патагония: По следам Дарвина, От Буэнос-Айреса до мыса Баия / Patagonien (2012) BDRip-AVС от potroks | P1

40 | 5

1.46 ГБ

В этой теме нет новых непрочитанных сообщений. Патагония: По следам Чарльза Дарвина / Patagonia: In The Footsteps Of Charles Darwin (2012) BDRip 1080p | 3D-Video

6 | 3

5.8 ГБ

В этой теме нет новых непрочитанных сообщений. Джунгли (2012) BDRip 1080p от Youtracker | 3D-Video | Лицензия

90 | 5

7.66 ГБ

В этой теме нет новых непрочитанных сообщений. Франкенвини / Frankenweenie (2012) BDRip 1080p от Youtracker | 3D-Video | Лицензия

389 | 9

9.36 ГБ

В этой теме нет новых непрочитанных сообщений. Снежная королева (2012) BDRip 1080p от Youtracker | 3D-Video | Лицензия

29 | 2

6.72 ГБ




Вы не можете начинать темы
Вы не можете отвечать на сообщения
Вы не можете редактировать свои сообщения
Вы не можете удалять свои сообщения
Вы не можете добавлять вложения

Перейти:  
Для Мосгорсуда, Роскомнадзора и рекламодателей: mosgorsud-torrent[собачка]yandex.ru
 Вход
ppkBB3cker v.2 © 2008-2014 @ PPK
[ Time : 0.046s | 14 Queries | GZIP : Off ]

Торрент трекер RUTOR.IN, Не можете зайти на rutor.org? Какой новый адрес рутор? Какое зеркало рутор? Не работает rutor.org и зеркала? Тогда наш торрент специально для вас. Rutor.in неофициальное зеркало rutor. В случае если у Вас заблокирован rutor или вдруг Вы не можете на него зайти, то Вы без труда сможете скачать бесплатно и без рекламы последние новинки кино, игр, сериалов и прочего у нас, на Rutor.in. Не нужно использовать прокси, чтобы зайти на рутор, достаточно воспользоваться нашим ресурсом. Все новые фильмы, игры, сериалы, книги и музыка за 2013 и 2014 годы через торрент бесплатно. Скачивайте фильмы в хорошем качестве, игры для пк, xbox, playstation без регистрации. У нас вы найдете новые Зарубежные сериалы и Русские сериалы 2013, 2014, 2015 годов. Оставайтесь с нами, качайте любимые фильмы, игры, сериалы, книги и музыку.