img image001 image001 image001 image001 image001 image001 image001 image001 image001 image001 image001 image001 image001 image001 image001

Planets Sun Sun Sun
Статистика раздачи
Автор: Снежана | Размер: 11.79 ГБ | Добавлен: 25 июл 2013
Раздают: 7    Качают: 8
Скачать торрент
Скачать торрент
Описание торрента

СообщениеДобавлено: 25 июл 2013 

#77

Информация о фильме
Название: Водная жизнь
Оригинальное название: Water Life
Год выхода: 2008
Жанр: Документальный

Режиссёр: Хуан Антонио Родригес Льяно / Juan Antonio Rodríguez Llano

О фильме:
История воды является историей жизни. От диких и чистых горных озер, рек, где начинаются, великолепные коралловые рифы, это эпический портрет богатого разнообразия жизни, а также поучительное свидетельство об опасностях, которые окружают нашу голубую планету.

Страна: США
Студия: Compania de Inventarios Naturales S.L. (CIN.TV)
Продолжительность: 26 x ~ 00:29:00
Перевод: Авторский одноголосый (Юрий Сербин)

Качество: HDRip
Формат:AVI
Видео кодек: XviD
Аудио кодек: MP3
Видео: 16:9, 2100 Кбит/сек, 720x400, 23,976 кадра/сек
Аудио: MP3, 2 канала, 192 Кбит/сек, 48,0 КГц

01. Мир воды / A World of Water
02. Странствующая вода / The Wandering Water
03. Там, где рождается вода / Where Water is Born
04. Жидкие дороги / Liquids Road
05. Спокойное течение / The quiet flow
06. Бульон жизни / Soup of Life
07. Тёмная вода / Dark Water
08. Полезная вода / Useful Water
09. Оболочка воды / Water's Skin
10. Вода-защитница / Protective Water
11. Вода, взятая взаймы / Borrowed Water
12. Мимолетная вода / Fleeting Water
13. Вода в джунглях / Jungle water
14. Соленые леса / Salt Forests
15. Царство приливов / Kingdom of Tides
16. Экстремальная вода / Extreme Water
17. Граница моря / The Frontier of the Sea
18. На морском берегу / On the Seaside
19. На морском дне / Under the Sea
20. У побережья / In Sight of the Coast
21. Подводный город/ The Underwater City
22. Синие просторы/ The Big Blue
23. Пульс воды / Water's Pulse
24. Неопределенные воды / Uncertain Water
25. Голоса воды/ Water's Voices
26. Создание сериала / Making Of

Общее
Полное имя : D:Водная жизнь (2008)�1. Мир воды.[R.G.RealMT].avi
Формат : AVI
Формат/Информация : Audio Video Interleave
Размер файла : 483 Мбайт
Продолжительность : 29 м.
Общий поток : 2301 Кбит/сек
Программа кодирования : VirtualDubMod 1.5.10.3 | www.virtualdub-fr.org || (build 2550/release)
Библиотека кодирования : VirtualDubMod build 2550/release

Видео
Идентификатор : 0
Формат : MPEG-4 Visual
Профиль формата : Advanced Simple@L5
Параметр BVOP формата : 2
Параметр QPel формата : Нет
Параметр GMC формата : Без точки перехода
Параметр матрицы формата : Default (H.263)
Режим смешивания : Сжатый битовый поток
Идентификатор кодека : XVID
Идентификатор кодека/Подсказка : XviD
Продолжительность : 29 м.
Битрейт : 2100 Кбит/сек
Ширина : 720 пикселей
Высота : 400 пикселей
Соотношение сторон : 16:9
Частота кадров : 23,976 кадра/сек
Цветовое пространство : YUV
Субдискретизация насыщенности : 4:2:0
Битовая глубина : 8 бит
Тип развёртки : Прогрессивная
Метод сжатия : С потерями
Бит/(Пиксели*Кадры) : 0.304
Размер потока : 440 Мбайт (91%)
Библиотека кодирования : XviD 1.2.1 (UTC 2008-12-04)

Аудио
Идентификатор : 1
Формат : MPEG Audio
Версия формата : Version 1
Профиль формата : Layer 3
Идентификатор кодека : 55
Идентификатор кодека/Подсказка : MP3
Продолжительность : 29 м.
Вид битрейта : Постоянный
Битрейт : 192 Кбит/сек
Каналы : 2 канала
Частота : 48,0 КГц
Метод сжатия : С потерями
Размер потока : 40,3 Мбайт (8%)
Выравнивание : Соединение по промежуткам
Продолжительность промежутка : 42 мс. (1,00 видеокадр)
Время предзагрузки промежутка : 504 мс.
Библиотека кодирования : LAME3.99r
Настройки программы : -m s -V 4 -q 2 -lowpass 18.6 -b 192

Релиз от:



   Похожие торренты   Торрент   Размер 
В этой теме нет новых непрочитанных сообщений. Водная жизнь / Water Life [01-26 из 26] (2008) BDRip 1080p | P1

2 | 8

69.32 ГБ

В этой теме нет новых непрочитанных сообщений. Водная жизнь / Water Life [01-03 из 12] (2007) BDRip от ExKinoRay

0 | 2

1.63 ГБ

В этой теме нет новых непрочитанных сообщений. Водная жизнь / Water Life [01-03 из 12] (2007) BDRip 720p от ExKinoRay

1 | 2

2.87 ГБ

В этой теме нет новых непрочитанных сообщений. Водная жизнь / The Life Aquatic with Steve Zissou (2004) HDRip-AVC | P

57 | 9

741.54 МБ

В этой теме нет новых непрочитанных сообщений. Водная жизнь / The Life Aquatic with Steve Zissou (2004) DVDRip

44 | 7

1.45 ГБ

В этой теме нет новых непрочитанных сообщений. Водная жизнь / The Life Aquatic with Steve Zissou (2004) BDRip от Vikosol | P, P2

158 | 109

2.18 ГБ

В этой теме нет новых непрочитанных сообщений. Водная жизнь / The Life Aquatic with Steve Zissou (2004) BDRip 1080p от Vikosol | P, P2

114 | 37

14.62 ГБ




Вы не можете начинать темы
Вы не можете отвечать на сообщения
Вы не можете редактировать свои сообщения
Вы не можете удалять свои сообщения
Вы не можете добавлять вложения

Перейти:  
Для Мосгорсуда, Роскомнадзора и рекламодателей: mosgorsud-torrent[собачка]yandex.ru
 Вход
ppkBB3cker v.2 © 2008-2014 @ PPK
[ Time : 0.027s | 14 Queries | GZIP : Off ]

Торрент трекер RUTOR.IN, Не можете зайти на rutor.org? Какой новый адрес рутор? Какое зеркало рутор? Не работает rutor.org и зеркала? Тогда наш торрент специально для вас. Rutor.in неофициальное зеркало rutor. В случае если у Вас заблокирован rutor или вдруг Вы не можете на него зайти, то Вы без труда сможете скачать бесплатно и без рекламы последние новинки кино, игр, сериалов и прочего у нас, на Rutor.in. Не нужно использовать прокси, чтобы зайти на рутор, достаточно воспользоваться нашим ресурсом. Все новые фильмы, игры, сериалы, книги и музыка за 2013 и 2014 годы через торрент бесплатно. Скачивайте фильмы в хорошем качестве, игры для пк, xbox, playstation без регистрации. У нас вы найдете новые Зарубежные сериалы и Русские сериалы 2013, 2014, 2015 годов. Оставайтесь с нами, качайте любимые фильмы, игры, сериалы, книги и музыку.