img image001 image001 image001 image001 image001 image001 image001 image001 image001 image001 image001 image001 image001 image001 image001

Planets Sun Sun Sun
Статистика раздачи
Автор: Снежана | Размер: 1.71 ГБ | Добавлен: 25 июл 2013
Раздают: 26    Качают: 4
Скачать торрент
Скачать торрент
Описание торрента

СообщениеДобавлено: 25 июл 2013 

Мрачное обаяние Адольфа Гитлера, увлекшее миллионы в бездну
The Dark Charisma of Adolf Hitler Leading Millions into the Abyss

#77
Год выпуска: 2012
Страна: Великобритания
Производство: ВВС, LR History TV Productions
Телеканал: "365 дней"
Жанр: Документальный, история, биография, фашизм, политика, военный
Продолжительность: 3 х ~ 00:49:00
Перевод: Профессиональный (двухголосый закадровый)
Русские субтитры: нет

Режиссер: Лоуренс Рис / Laurence Rees

Описание: Адольф Гитлер - лидер страны с богатейшей культурой в самом сердце Европы. Человек, не способный к нормальным человеческим отношениям, лишенный сострадания, преисполненный ненависти и предрассудков. Еще задолго до Второй Мировой Войны Гитлер с жестокостью говорил о своих политических противниках. Ненависть Гитлера приведет к холокосту, а его жажда завоеваний оставит пол Европы в руинах. И все же этот человек - воплощение зла - был некогда любим миллионами. И если бы не события в мировой истории, так бы и остался Гитлер никому не известным художником...

качество: SATRip
формат: AVI
видеокодек: XviD
аудиокодек: MP3
Видео: MPEG-4 Visual, 704 х 400 (16:9), 25,000 кадров/сек, 1500 Кбит/сек, 0.213 бит/пиксель
Аудио: MP3, 48,0 КГц, 128 Кбит/сек, 2 канала

Rip by extrimus, релиз группа

Общее
Полное имя : D:torrentМрачное обаяние ГитлераМрачное обаяние Гитлера.2.2012.SATRip.avi
Формат : AVI
Формат/Информация : Audio Video Interleave
Размер файла : 572 Мбайт
Продолжительность : 48 м.
Общий поток : 1637 Кбит/сек
Программа кодирования : VirtualDubMod 1.5.10.3 | www.virtualdub-fr.org || (build 2550/release)
Библиотека кодирования : VirtualDubMod build 2550/release

Видео
Идентификатор : 0
Формат : MPEG-4 Visual
Профиль формата : Advanced Simple@L5
Параметр BVOP формата : 2
Параметр QPel формата : Нет
Параметр GMC формата : Без точки перехода
Параметр матрицы формата : Default (H.263)
Идентификатор кодека : XVID
Идентификатор кодека/Подсказка : XviD
Продолжительность : 48 м.
Битрейт : 1500 Кбит/сек
Ширина : 704 пикселя
Высота : 400 пикселей
Соотношение сторон : 16:9
Частота кадров : 25,000 кадров/сек
Цветовое пространство : YUV
Субдискретизация насыщенности : 4:2:0
Битовая глубина : 8 бит
Тип развёртки : Прогрессивная
Метод сжатия : С потерями
Бит/(Пиксели*Кадры) : 0.213
Размер потока : 524 Мбайт (92%)
Библиотека кодирования : XviD 73

Аудио
Идентификатор : 1
Формат : MPEG Audio
Версия формата : Version 1
Профиль формата : Layer 3
Идентификатор кодека : 55
Идентификатор кодека/Подсказка : MP3
Продолжительность : 48 м.
Вид битрейта : Постоянный
Битрейт : 128 Кбит/сек
Каналы : 2 канала
Частота : 48,0 КГц
Метод сжатия : С потерями
Размер потока : 44,7 Мбайт (8%)
Выравнивание : Соединение по промежуткам
Продолжительность промежутка : 40 мс. (1,00 видеокадр)
Время предзагрузки промежутка : 504 мс.
Библиотека кодирования : LAME3.99r
Настройки программы : -m s -V 4 -q 0 -lowpass 17 -b 128




   Похожие торренты   Торрент   Размер 
В этой теме нет новых непрочитанных сообщений. Мрачное обаяние Адольфа Гитлера, увлекшее миллионы в бездну / The Dark Charisma of Adolf Hitler Leading Millions [01-03 из 03] (2012) SATRip

17 | 7

1.71 ГБ

В этой теме нет новых непрочитанных сообщений. Мрачное обаяние Адольфа Гитлера, увлекшее миллионы в бездну / The Dark Charisma of Adolf Hitler Leading Millions (2012) SATRip

8 | 47

582.23 МБ

В этой теме нет новых непрочитанных сообщений. Мрачное обаяние Адольфа Гитлера / The Dark Charisma of Adolf Hitler [01-03 из 03] (2012) HDTVRip R.G.Resident

46 | 1

1.61 ГБ

В этой теме нет новых непрочитанных сообщений. Тайна смерти Адольфа Гитлера (2009) IPTVRip от Generalfilm

25 | 9

458.44 МБ

В этой теме нет новых непрочитанных сообщений. Последние дни Адольфа Гитлера / Adolf Hitler's Last Days (1998 ) DVDRip

24 | 7

699.06 МБ

В этой теме нет новых непрочитанных сообщений. Избирательная речь Адольфа Гитлера на выборах 1932г., Венский парад 1938г. (2004) VHSRip

23 | 2

155.87 МБ

В этой теме нет новых непрочитанных сообщений. Секреты Второй мировой: Последние дни Адольфа Гитлера / Secrets of World War 2: Adolf Hitler's last days (2000) DVDRip от brazolargo

1 | 25

628.07 МБ




Вы не можете начинать темы
Вы не можете отвечать на сообщения
Вы не можете редактировать свои сообщения
Вы не можете удалять свои сообщения
Вы не можете добавлять вложения

Перейти:  
Для Мосгорсуда, Роскомнадзора и рекламодателей: mosgorsud-torrent[собачка]yandex.ru
 Вход
ppkBB3cker v.2 © 2008-2014 @ PPK
[ Time : 0.097s | 14 Queries | GZIP : Off ]

Торрент трекер RUTOR.IN, Не можете зайти на rutor.org? Какой новый адрес рутор? Какое зеркало рутор? Не работает rutor.org и зеркала? Тогда наш торрент специально для вас. Rutor.in неофициальное зеркало rutor. В случае если у Вас заблокирован rutor или вдруг Вы не можете на него зайти, то Вы без труда сможете скачать бесплатно и без рекламы последние новинки кино, игр, сериалов и прочего у нас, на Rutor.in. Не нужно использовать прокси, чтобы зайти на рутор, достаточно воспользоваться нашим ресурсом. Все новые фильмы, игры, сериалы, книги и музыка за 2013 и 2014 годы через торрент бесплатно. Скачивайте фильмы в хорошем качестве, игры для пк, xbox, playstation без регистрации. У нас вы найдете новые Зарубежные сериалы и Русские сериалы 2013, 2014, 2015 годов. Оставайтесь с нами, качайте любимые фильмы, игры, сериалы, книги и музыку.