img image001 image001 image001 image001 image001 image001 image001 image001 image001 image001 image001 image001 image001 image001 image001

Planets Sun Sun Sun
Статистика раздачи
Автор: Снежана | Размер: 2.51 ГБ | Добавлен: 24 июл 2013
Раздают: 1    Качают: 6
Скачать торрент
Скачать торрент
Описание торрента

СообщениеДобавлено: 24 июл 2013 

#77

Год выпуска DVD: 2009
Страна: США
Жанр: научно-популярный фильм
Продолжительность: ~50 мин. х 3 серии
Перевод: Профессиональный многоголосый закадровый
Русские субтитры: нет
Режиссер: Питер Спрай-Левертон / Peter Spry-Leverton

Описание:

Великие египтяне. Рамзес Великий / Great Egyptians: Ramses The Great, 52 мин., 1997 г.
Рамзес II правил 64 года. Он был очень честолюбивым правителем, и требовал, чтобы подданные восхваляли его военные успехи. Он заявлял, что в одиночку одержал победу во многих битвах, и его эго было так велико, что он приказал заложить камнями вход в гробницу отца, и на этой новой стене описать все его победы. Рамзес приказал построить храм в свою честь таким образом, чтобы солнечные лучи в день его рождения освещали четыре статуи с его изображением. Действительно ли Рамзес II сыграл важную роль в истории Египта, вы узнаете, посмотрев эту программу.

Великие египтяне. Хатшепсут: царица, ставшае царем, 47 мин., 1997 г.
Хатшепсут – дочь фараона, которая сама хотела быть правительницей, и преуспела в своем стремлении. Она оттеснила племянника, законного наследника трона, и правила Египтом на протяжении 22 лет. Хатшепсут отправила торговую экспедицию в сторону древнего Сомали, и корабли вернулись, нагруженные слоновой костью, жирафами и обезьянами, и это помогло египтянам открыть первый в мировой истории зоопарк. Чем еще прославилась знаменитая женщина-фараон, вы узнаете, посмотрев программу.

Великие египтяне. Эхнатон: фараон-мятежник, 52 мин., 1997 г.
В 14 веке до н.э. в Египте правил фараон Аменхотеп IV. Он провозгласил своим отцом бога Атона, изображающегося в виде солнечного диска, и сменил имя на Эхнатон («угодный Атону»). Для поклонения новому богу Эхнатон построил новую столицу – Ахетатон. Вместе с нововведениями в религии, фараон-реформатор так же внес изменения в культурную жизнь Египта. В новом искусстве изображения стали более реалистичными и упрощенными, на стенах гробниц стали отображать картины из жизни и быта египтян. Чем еще прославился знаменитый фараон? Узнайте больше, посмотрев программу.
Вместе с ведущим программы Вы спуститесь в древние гробницы, побываете в мировых музеях и откроете тайны и загадки египетской истории!

Качество: DVDRip
Формат:AVI
Видео кодек: XviD
Аудио кодек: MP3
Видео: 4:3, 2096 Кбит/сек, 704x528, 25,000 кадров/сек
Аудио: MP3, 2 канала, 192 Кбит/сек, 48,0 КГц







Общее
Полное имя : D:Great Eg�1 Великие египтяне. Рамзес Великий.[R.G.RealMT].avi
Формат : AVI
Формат/Информация : Audio Video Interleave
Размер файла : 855 Мбайт
Продолжительность : 52 м.
Общий поток : 2298 Кбит/сек
Программа кодирования : VirtualDubMod 1.5.10.3 | www.virtualdub-fr.org || (build 2550/release)
Библиотека кодирования : VirtualDubMod build 2550/release

Видео
Идентификатор : 0
Формат : MPEG-4 Visual
Профиль формата : Advanced Simple@L5
Параметр BVOP формата : 2
Параметр QPel формата : Нет
Параметр GMC формата : Без точки перехода
Параметр матрицы формата : Default (H.263)
Режим смешивания : Сжатый битовый поток
Идентификатор кодека : XVID
Идентификатор кодека/Подсказка : XviD
Продолжительность : 52 м.
Битрейт : 2096 Кбит/сек
Ширина : 704 пикселя
Высота : 528 пикселей
Соотношение сторон : 4:3
Частота кадров : 25,000 кадров/сек
Цветовое пространство : YUV
Субдискретизация насыщенности : 4:2:0
Битовая глубина : 8 бит
Тип развёртки : Прогрессивная
Метод сжатия : С потерями
Бит/(Пиксели*Кадры) : 0.226
Размер потока : 780 Мбайт (91%)
Библиотека кодирования : XviD 1.2.1 (UTC 2008-12-04)

Аудио
Идентификатор : 1
Формат : MPEG Audio
Версия формата : Version 1
Профиль формата : Layer 3
Идентификатор кодека : 55
Идентификатор кодека/Подсказка : MP3
Продолжительность : 52 м.
Вид битрейта : Постоянный
Битрейт : 192 Кбит/сек
Каналы : 2 канала
Частота : 48,0 КГц
Метод сжатия : С потерями
Размер потока : 71,5 Мбайт (8%)
Выравнивание : Соединение по промежуткам
Продолжительность промежутка : 40 мс. (1,00 видеокадр)
Время предзагрузки промежутка : 504 мс.
Библиотека кодирования : LAME3.99r
Настройки программы : -m s -V 4 -q 2 -lowpass 18.6 -b 192

Релиз от:



   Похожие торренты   Торрент   Размер 
В этой теме нет новых непрочитанных сообщений. Discovery: Великие замки Европы (3 фильма из 3) / Discovery: Great Castles Of Europe (1994) DVDRip от Lukavaya

30 | 16

1.25 ГБ

В этой теме нет новых непрочитанных сообщений. Discovery: Вторая мировая в HD цвете / Discovery: World War II In HD Colour [01-13 из 13] (2009) HDRip от R.G.RealMT | P1

86 | 13

10.72 ГБ

В этой теме нет новых непрочитанных сообщений. Discovery: Вторая мировая в HD цвете / Discovery: World War II In HD Colour [01-13 из 13] (2009) Bdrip 720p от R.G.RealMT | P1

8 | 4

28.31 ГБ

В этой теме нет новых непрочитанных сообщений. Discovery - Великие замки Европы / Great Castles Of Europe (1994) DVD5

4 | 2

3.7 ГБ

В этой теме нет новых непрочитанных сообщений. Discovery Атлас / Discovery Atlas [01-10 из 10] (2006 – 2007) DVDRip от R.G.RealMT

0 | 11

14.11 ГБ

В этой теме нет новых непрочитанных сообщений. Discovery: Америка с высоты / Discovery: Aerial America [01-07 из 07] (2013) HDTVRip от R.G.RealMT | Р1

31 | 8

5.11 ГБ

В этой теме нет новых непрочитанных сообщений. Discovery: Туристические жемчужины / Discovery: HD Getaways [01-8 из 8] (2004) HDRip от R.G.RealMT | Р1

3 | 2

3.16 ГБ




Вы не можете начинать темы
Вы не можете отвечать на сообщения
Вы не можете редактировать свои сообщения
Вы не можете удалять свои сообщения
Вы не можете добавлять вложения

Перейти:  
Для Мосгорсуда, Роскомнадзора и рекламодателей: mosgorsud-torrent[собачка]yandex.ru
 Вход
ppkBB3cker v.2 © 2008-2014 @ PPK
[ Time : 0.044s | 15 Queries | GZIP : Off ]

cron