img image001 image001 image001 image001 image001 image001 image001 image001 image001 image001 image001 image001 image001 image001 image001

Planets Sun Sun Sun
Статистика раздачи
Автор: Снежана | Размер: 3.94 ГБ | Добавлен: 25 июл 2013
Раздают: 6    Качают: 9
Скачать торрент
Скачать торрент
Описание торрента

СообщениеДобавлено: 25 июл 2013 

#77

Информация о фильме
Название: Известная Вселенная
Оригинальное название: Known Universe
Год выхода: 2009
Жанр: Документальный, научно-познавательный, природа, космос, путешествие, исследование
Режиссер: В. Скотт Голди
В ролях: Стивен Л. Джейкобс, Бо Уивер, Sigrid Close, Andy Howell, David Kaplan, Майкл Дж. Массимино, Мосин Мелвин, David J. Helfand, Mike Brown, Роберт Херт

О фильме:
Вместе с каналом National Geographic вы сможете попасть в мир непознанных явлений, попасть в микро и макромиры, побывать на звездах и изучить строение атома. Вы опуститесь в глубины океанов и окажетесь на околоземной орбите в космосе. На все самые сложные вопросы мироздания канал National Geographic находит понятные любой домохозяйке ответы, а оторваться от документальных фильмов производства Американского национального географического общества как всегда невозможно. Настолько они интересные и познавательные для всех, от прачки до академика...

Episode 1: The Biggest and Smallest / От атома до космоса
Продолжительность: 00:42:17

В огромной вселенной, в которой мы существуем, крошечные атомы составляют строительные блоки всего вокруг нас. Размер имеет значение, когда речь заходит о понимании космоса. Начиная с нашей Солнечной системы, мы рассмотрим истинное значение слова "большой".

Episode 2: The Most Explosive / Взрывоопасный космос
Продолжительность: 00:41:58

Вас заберут в путешествие от Гималаев через нашу атмосферу в черный космос, через Cолнечную систему, Млечный путь, облака галактик, чтобы увидеть всю картину вселенной вместе со светом молодой вселенной - остаточным свечением от большого взрыва. Но все путешествия начнутся на Земле, начиная с изучения атомов и заканчивая нанотехнологиями. Несмотря на видимый покой, космос обладает огромной разрушительной энергией. Мы исследуем тёмные силы, движущие космическими бурями и взрывами.

Episode 3: The Fastest / Космические скорости
Продолжительность: 00:42:05

В обширном пространстве космоса ничто не имеет большего значения, чем скорость. Решитесь ли вы полететь к дальним пределам нашей Солнечной системы или исследовать тайны путешествия во времени и червоточин, скорость будет являться ключом. А есть ли скорость вообще?


Страна: США
Продолжительность: 3 x ~ 00:42:00
Перевод: Дубляж. Петербург 5 канал

Файл
Кодек: x264
Качество: BDRip 720p
Видео: 1280x720 at 25.000 fps, x264@L4.1, 3655-3978 Kbps
Звук:
Аудио 1: Russian:48 kHz, AC3, 2.0 (L,R) ch, ~192 kbps [Дубляж. Петербург 5 канал]
Аудио 2: German:48 kHz, AC3, 3/2 (L,C,R,l,r) + LFE ch, ~384 kbps
---[NoImage] x264 [info]: frame I:504 Avg QP:15.49 size: 74163
---[NoImage] x264 [info]: frame P:21001 Avg QP:18.95 size: 31294
---[NoImage] x264 [info]: frame B:41920 Avg QP:21.02 size: 14141

---[NoImage] x264 [info]: frame I:501 Avg QP:15.21 size: 76842
---[NoImage] x264 [info]: frame P:21331 Avg QP:18.78 size: 29302
---[NoImage] x264 [info]: frame B:41119 Avg QP:20.73 size: 12414

---[NoImage] x264 [info]: frame I:576 Avg QP:15.73 size: 80628
---[NoImage] x264 [info]: frame P:20994 Avg QP:18.87 size: 31620
---[NoImage] x264 [info]: frame B:41552 Avg QP:20.99 size: 13690

General
Unique ID : 235910409733561684450336979326346170247 (0xB17AB135F9C34BE48F45A502DDCB8F87)
Complete name : Known.Universe.S01E01.2009.BluRay.Rus.Ger.720p.HDCLUB.mkv
Format : Matroska
Format version : Version 4 / Version 2
File size : 1.35 GiB
Duration : 42mn 17s
Overall bit rate : 4 574 Kbps
Encoded date : UTC 2013-05-22 16:00:47
Writing application : mkvmerge v6.1.0 ('Old Devil') built on Mar 2 2013 14:32:37
Writing library : libebml v1.3.0 + libmatroska v1.4.0

Video
ID : 1
Format : AVC
Format/Info : Advanced Video Codec
Format profile : High@L4.1
Format settings, CABAC : Yes
Format settings, ReFrames : 8 frames
Codec ID : V_MPEG4/ISO/AVC
Duration : 42mn 17s
Bit rate : 3 971 Kbps
Width : 1 280 pixels
Height : 720 pixels
Display aspect ratio : 16:9
Frame rate mode : Constant
Frame rate : 25.000 fps
Color space : YUV
Chroma subsampling : 4:2:0
Bit depth : 8 bits
Scan type : Progressive
Bits/(Pixel*Frame) : 0.172
Stream size : 1.17 GiB (87%)
Title : Known Universe. Episode 1: The Biggest and Smallest / От атома до космоса
Writing library : x264 core 130 r2273 b3065e6
Encoding settings : cabac=1 / ref=8 / deblock=1:0:0 / analyse=0x3:0x113 / me=umh / subme=10 / psy=1 / psy_rd=1.00:0.00 / mixed_ref=1 / me_range=48 / chroma_me=1 / trellis=2 / 8x8dct=1 / cqm=0 / deadzone=21,11 / fast_pskip=1 / chroma_qp_offset=-2 / threads=6 / lookahead_threads=1 / sliced_threads=0 / nr=0 / decimate=1 / interlaced=0 / bluray_compat=0 / constrained_intra=0 / bframes=3 / b_pyramid=2 / b_adapt=2 / b_bias=0 / direct=1 / weightb=1 / open_gop=0 / weightp=2 / keyint=250 / keyint_min=25 / scenecut=40 / intra_refresh=0 / rc_lookahead=40 / rc=crf / mbtree=1 / crf=17.0 / qcomp=0.60 / qpmin=0 / qpmax=69 / qpstep=4 / vbv_maxrate=50000 / vbv_bufsize=62500 / crf_max=0.0 / nal_hrd=none / ip_ratio=1.40 / aq=1:0.80
Language : English
Default : Yes
Forced : No
Matrix coefficients : BT.709

Audio #1
ID : 2
Format : AC-3
Format/Info : Audio Coding 3
Mode extension : CM (complete main)
Format settings, Endianness : Big
Codec ID : A_AC3
Duration : 42mn 17s
Bit rate mode : Constant
Bit rate : 128 Kbps
Channel(s) : 2 channels
Channel positions : Front: L R
Sampling rate : 48.0 KHz
Bit depth : 16 bits
Compression mode : Lossy
Stream size : 38.7 MiB (3%)
Title : Дубляж. Петербург 5 канал
Language : Russian
Default : Yes
Forced : No

Audio #2
ID : 3
Format : AC-3
Format/Info : Audio Coding 3
Mode extension : CM (complete main)
Format settings, Endianness : Big
Codec ID : A_AC3
Duration : 42mn 17s
Bit rate mode : Constant
Bit rate : 384 Kbps
Channel(s) : 6 channels
Channel positions : Front: L C R, Side: L R, LFE
Sampling rate : 48.0 KHz
Bit depth : 16 bits
Compression mode : Lossy
Stream size : 116 MiB (8%)
Title : German
Language : German
Default : No
Forced : No

Text
ID : 4
Format : UTF-8
Codec ID : S_TEXT/UTF8
Codec ID/Info : UTF-8 Plain Text
Title : Rubbiroid
Language : Russian
Default : Yes
Forced : No

Menu
00:00:00.000 : en:
00:07:13.559 : en:
00:23:22.359 : en:
00:41:56.160 : en:
00:42:16.560 : en:

General
Unique ID : 171505840429874316030416561593627126017 (0x8106D2C883E54187B41ADE40D46F2901)
Complete name : Known.Universe.S01E02.2009.BluRay.Rus.Ger.720p.HDCLUB.mkv
Format : Matroska
Format version : Version 4 / Version 2
File size : 1.24 GiB
Duration : 41mn 58s
Overall bit rate : 4 244 Kbps
Encoded date : UTC 2013-05-22 16:01:39
Writing application : mkvmerge v6.1.0 ('Old Devil') built on Mar 2 2013 14:32:37
Writing library : libebml v1.3.0 + libmatroska v1.4.0

Video
ID : 1
Format : AVC
Format/Info : Advanced Video Codec
Format profile : High@L4.1
Format settings, CABAC : Yes
Format settings, ReFrames : 8 frames
Codec ID : V_MPEG4/ISO/AVC
Duration : 41mn 58s
Bit rate : 3 647 Kbps
Width : 1 280 pixels
Height : 720 pixels
Display aspect ratio : 16:9
Frame rate mode : Constant
Frame rate : 25.000 fps
Color space : YUV
Chroma subsampling : 4:2:0
Bit depth : 8 bits
Scan type : Progressive
Bits/(Pixel*Frame) : 0.158
Stream size : 1.07 GiB (86%)
Title : Known Universe. Episode 2: The Most Explosive / Взрывоопасный космос
Writing library : x264 core 130 r2273 b3065e6
Encoding settings : cabac=1 / ref=8 / deblock=1:0:0 / analyse=0x3:0x113 / me=umh / subme=10 / psy=1 / psy_rd=1.00:0.00 / mixed_ref=1 / me_range=48 / chroma_me=1 / trellis=2 / 8x8dct=1 / cqm=0 / deadzone=21,11 / fast_pskip=1 / chroma_qp_offset=-2 / threads=6 / lookahead_threads=1 / sliced_threads=0 / nr=0 / decimate=1 / interlaced=0 / bluray_compat=0 / constrained_intra=0 / bframes=3 / b_pyramid=2 / b_adapt=2 / b_bias=0 / direct=1 / weightb=1 / open_gop=0 / weightp=2 / keyint=250 / keyint_min=25 / scenecut=40 / intra_refresh=0 / rc_lookahead=40 / rc=crf / mbtree=1 / crf=17.0 / qcomp=0.60 / qpmin=0 / qpmax=69 / qpstep=4 / vbv_maxrate=50000 / vbv_bufsize=62500 / crf_max=0.0 / nal_hrd=none / ip_ratio=1.40 / aq=1:0.80
Language : English
Default : Yes
Forced : No
Matrix coefficients : BT.709

Audio #1
ID : 2
Format : AC-3
Format/Info : Audio Coding 3
Mode extension : CM (complete main)
Format settings, Endianness : Big
Codec ID : A_AC3
Duration : 41mn 58s
Bit rate mode : Constant
Bit rate : 128 Kbps
Channel(s) : 2 channels
Channel positions : Front: L R
Sampling rate : 48.0 KHz
Bit depth : 16 bits
Compression mode : Lossy
Stream size : 38.4 MiB (3%)
Title : Дубляж. Петербург 5 канал
Language : Russian
Default : Yes
Forced : No

Audio #2
ID : 3
Format : AC-3
Format/Info : Audio Coding 3
Mode extension : CM (complete main)
Format settings, Endianness : Big
Codec ID : A_AC3
Duration : 41mn 58s
Bit rate mode : Constant
Bit rate : 384 Kbps
Channel(s) : 6 channels
Channel positions : Front: L C R, Side: L R, LFE
Sampling rate : 48.0 KHz
Bit depth : 16 bits
Compression mode : Lossy
Stream size : 115 MiB (9%)
Title : German
Language : German
Default : No
Forced : No

Menu
00:00:00.000 : en:
00:07:00.000 : en:
00:22:01.320 : en:
00:41:33.719 : en:
00:41:57.800 : en:

General
Unique ID : 195043347608451270292144055891784499285 (0x92BBFB7C071FD3C0B91BFD5A1F6E0055)
Complete name : Known.Universe.S01E03.2009.BluRay.Rus.Ger.720p.HDCLUB.mkv
Format : Matroska
Format version : Version 4 / Version 2
File size : 1.34 GiB
Duration : 42mn 4s
Overall bit rate : 4 567 Kbps
Encoded date : UTC 2013-05-22 16:02:53
Writing application : mkvmerge v6.1.0 ('Old Devil') built on Mar 2 2013 14:32:37
Writing library : libebml v1.3.0 + libmatroska v1.4.0

Video
ID : 1
Format : AVC
Format/Info : Advanced Video Codec
Format profile : High@L4.1
Format settings, CABAC : Yes
Format settings, ReFrames : 8 frames
Codec ID : V_MPEG4/ISO/AVC
Duration : 42mn 5s
Bit rate : 3 964 Kbps
Width : 1 280 pixels
Height : 720 pixels
Display aspect ratio : 16:9
Frame rate mode : Constant
Frame rate : 25.000 fps
Color space : YUV
Chroma subsampling : 4:2:0
Bit depth : 8 bits
Scan type : Progressive
Bits/(Pixel*Frame) : 0.172
Stream size : 1.17 GiB (87%)
Title : Known Universe. Episode 3: The Fastest / Космические скорости
Writing library : x264 core 130 r2273 b3065e6
Encoding settings : cabac=1 / ref=8 / deblock=1:0:0 / analyse=0x3:0x113 / me=umh / subme=10 / psy=1 / psy_rd=1.00:0.00 / mixed_ref=1 / me_range=48 / chroma_me=1 / trellis=2 / 8x8dct=1 / cqm=0 / deadzone=21,11 / fast_pskip=1 / chroma_qp_offset=-2 / threads=6 / lookahead_threads=1 / sliced_threads=0 / nr=0 / decimate=1 / interlaced=0 / bluray_compat=0 / constrained_intra=0 / bframes=3 / b_pyramid=2 / b_adapt=2 / b_bias=0 / direct=1 / weightb=1 / open_gop=0 / weightp=2 / keyint=250 / keyint_min=25 / scenecut=40 / intra_refresh=0 / rc_lookahead=40 / rc=crf / mbtree=1 / crf=17.0 / qcomp=0.60 / qpmin=0 / qpmax=69 / qpstep=4 / vbv_maxrate=50000 / vbv_bufsize=62500 / crf_max=0.0 / nal_hrd=none / ip_ratio=1.40 / aq=1:0.80
Language : English
Default : Yes
Forced : No
Matrix coefficients : BT.709

Audio #1
ID : 2
Format : AC-3
Format/Info : Audio Coding 3
Mode extension : CM (complete main)
Format settings, Endianness : Big
Codec ID : A_AC3
Duration : 42mn 4s
Bit rate mode : Constant
Bit rate : 128 Kbps
Channel(s) : 2 channels
Channel positions : Front: L R
Sampling rate : 48.0 KHz
Bit depth : 16 bits
Compression mode : Lossy
Stream size : 38.5 MiB (3%)
Title : Дубляж. Петербург 5 канал
Language : Russian
Default : Yes
Forced : No

Audio #2
ID : 3
Format : AC-3
Format/Info : Audio Coding 3
Mode extension : CM (complete main)
Format settings, Endianness : Big
Codec ID : A_AC3
Duration : 42mn 4s
Bit rate mode : Constant
Bit rate : 384 Kbps
Channel(s) : 6 channels
Channel positions : Front: L C R, Side: L R, LFE
Sampling rate : 48.0 KHz
Bit depth : 16 bits
Compression mode : Lossy
Stream size : 116 MiB (8%)
Title : German
Language : German
Default : No
Forced : No

Menu
00:00:00.000 : en:
00:07:46.800 : en:
00:20:44.320 : en:
00:41:42.440 : en:
00:42:04.719 : en:




Релиз от:



   Похожие торренты   Торрент   Размер 
В этой теме нет новых непрочитанных сообщений. Известная Вселенная: С космической скоростью / Known Universe: Speeding Through the Universe (2009) SATRip

0 | 17

551.62 МБ

В этой теме нет новых непрочитанных сообщений. Вселенная / The Universe [S04] (2009) BDRip 1080p | D, P1

57 | 58

39.93 ГБ

В этой теме нет новых непрочитанных сообщений. Вселенная. Пульсары и квазары / The Universe: Pulsars and Quasars (2009) BDRip

0 | 26

527.89 МБ

В этой теме нет новых непрочитанных сообщений. Звездные врата: Вселенная / Stargate Universe [s01] (2009-2010) WEB-DLRip 720p от LostFilm

107 | 10

29.31 ГБ

В этой теме нет новых непрочитанных сообщений. Звёздные врата: Вселенная / Stargate: Universe [S01] (2009) BDRip-AVC 900p от LostFilm

3 | 4

38.69 ГБ

В этой теме нет новых непрочитанных сообщений. Вселенная / The Universe [s01] (2007) BDRip 720p

6 | 4

21.44 ГБ

В этой теме нет новых непрочитанных сообщений. Вселенная / The Universe [S01] (2007) BDRip 720p от GYN

1 | 4

41.74 ГБ




Вы не можете начинать темы
Вы не можете отвечать на сообщения
Вы не можете редактировать свои сообщения
Вы не можете удалять свои сообщения
Вы не можете добавлять вложения

Перейти:  
Для Мосгорсуда, Роскомнадзора и рекламодателей: mosgorsud-torrent[собачка]yandex.ru
 Вход
ppkBB3cker v.2 © 2008-2014 @ PPK
[ Time : 0.038s | 14 Queries | GZIP : Off ]

Торрент трекер RUTOR.IN, Не можете зайти на rutor.org? Какой новый адрес рутор? Какое зеркало рутор? Не работает rutor.org и зеркала? Тогда наш торрент специально для вас. Rutor.in неофициальное зеркало rutor. В случае если у Вас заблокирован rutor или вдруг Вы не можете на него зайти, то Вы без труда сможете скачать бесплатно и без рекламы последние новинки кино, игр, сериалов и прочего у нас, на Rutor.in. Не нужно использовать прокси, чтобы зайти на рутор, достаточно воспользоваться нашим ресурсом. Все новые фильмы, игры, сериалы, книги и музыка за 2013 и 2014 годы через торрент бесплатно. Скачивайте фильмы в хорошем качестве, игры для пк, xbox, playstation без регистрации. У нас вы найдете новые Зарубежные сериалы и Русские сериалы 2013, 2014, 2015 годов. Оставайтесь с нами, качайте любимые фильмы, игры, сериалы, книги и музыку.