img image001 image001 image001 image001 image001 image001 image001 image001 image001 image001 image001 image001 image001 image001 image001

Planets Sun Sun Sun
Статистика раздачи
Автор: Снежана | Размер: 3.63 ГБ | Добавлен: 25 июл 2013
Раздают: 27    Качают: 8
Скачать торрент
Скачать торрент
Описание торрента

СообщениеДобавлено: 25 июл 2013 

Африка

Africa

«Лицом к лицу с неизвестным»


#77

Год выпуска: 2013
Страна: Великобритания
Жанр: документальный
Продолжительность: 5 x ~ 00:57:00
Перевод: Авторский (одноголосый закадровый) Владимир Курдов
Оригинальная аудиодорожка: нет
Субтитры: русские


Режиссеры: Катрина Бартлам / Katrina Bartlam, Фелисити Эгертон / Felicity Egerton

В ролях: Дэвид Аттенборо, Форест Уитакер, Саймон Блэкни, Джеймс Олдред, Пол Брехем, Мартин Колбек, Марк Дибл, Джастин Эванс, Марк МакЭвен, Джастин Магвайр

Описание: Это новое представление ландшафтов и живых созданий дикой природы поведает в невиданном доселе ключе о горах и саваннах, вулканах и озерах, ледниках и джунглях Африки, населенных удивительными животными, пресмыкающимися, рыбами и насекомыми с необыкновенным поведением в естественной среде обитания, по-прежнему полной тайн и загадок…





Качество: HDRip [BDRip 1080p]
Формат: AVI

Видео: XviD, 720x400 (16:9), 25 fps, 1 403 Kbps, 0.195 Bits/(Pixel*Frame)
Аудио: AC3, 48 KHz, 384 Kbps, 6 channels
Субтитры: SRT | русские | отдельно

Раздача от:
Эпизод 1: Калахари / Kalahari
Эпизод 2: Cаванна / Savannah
Эпизод 3: Конго / Congo
Эпизод 4: Мыс / Cape
Эпизод 5: Сахара / Sahara

Перевод Елены Акуловой, редактор Александр Кривцов, озвучивание Владимир Курдов.

Перевод и озвучивание выполнены в рамках сервиса "Озвучивание". Спонсоры: tambov68, LibrarianA, gelom, jezburg68, Turko, Cheetah, DeTorquemada, RomanTar, Baron0580, habal_garmin, Studio, sergey324, Andrey2012, qwert54326.

При каждом добавлении создаётся новый торрент. Чтобы начать докачку новой серии, пользователям необходимо сделать следующее:
1) остановить скачивание,
2) удалить старый торрент у себя из клиента (старые серии удалять не надо),
3) скачать новый торрент и запустить его у себя в клиенте вместо старого, при этом указать клиенту путь в старую папку куда и должно происходить скачивание новых серий.
Ваш клиент при этом должен произвести хеширование (проверку) старой папки (если не производит сам - помогите ему сделать это), и будет докачивать только те серии которых у вас ещё нет. Старые серии при этом не удаляются, а продолжают раздаваться!
Eсли вы уже удалили старые серии, то предотвратить повторную закачку старых серий можно, отжав галочку в соответствующих местах при запуске нового торрента.

General
Complete name : D:Africa.S01.E01.2013.HDRip.XviD.AC3.744mb.YTN.avi
Format : AVI
Format/Info : Audio Video Interleave
File size : 744 MiB
Duration : 57mn 53s
Overall bit rate : 1 796 Kbps
Writing application : VirtualDubMod 1.5.10.2 (build 2540/release)
Writing library : VirtualDubMod build 2540/release

Video
ID : 0
Format : MPEG-4 Visual
Format profile : Advanced Simple@L5
Format settings, BVOP : 1
Format settings, QPel : No
Format settings, GMC : No warppoints
Format settings, Matrix : Custom
Codec ID : XVID
Codec ID/Hint : XviD
Duration : 57mn 53s
Bit rate : 1 403 Kbps
Width : 720 pixels
Height : 400 pixels
Display aspect ratio : 16:9
Frame rate : 25.000 fps
Color space : YUV
Chroma subsampling : 4:2:0
Bit depth : 8 bits
Scan type : Progressive
Compression mode : Lossy
Bits/(Pixel*Frame) : 0.195
Stream size : 581 MiB (78%)
Writing library : XviD 65

Audio
ID : 1
Format : AC-3
Format/Info : Audio Coding 3
Mode extension : CM (complete main)
Codec ID : 2000
Duration : 57mn 53s
Bit rate mode : Constant
Bit rate : 384 Kbps
Channel(s) : 6 channels
Channel positions : Front: L C R, Side: L R, LFE
Sampling rate : 48.0 KHz
Bit depth : 16 bits
Compression mode : Lossy
Stream size : 159 MiB (21%)
Alignment : Split accross interleaves
Interleave, duration : 40 ms (1.00 video frame)
Interleave, preload duration : 500 ms




   Похожие торренты   Торрент   Размер 
В этой теме нет новых непрочитанных сообщений. Африка / Africa [S01] (2013) HDRip | P1

101 | 22

7.04 ГБ

В этой теме нет новых непрочитанных сообщений. Африка / BBC: Africa [01-05 из 06] (2013) HDRip от DeathN2

15 | 6

5.86 ГБ

В этой теме нет новых непрочитанных сообщений. Африка / BBC: Africa [01-06 из 06] (2013) HDRip от DeathN2

8 | 2

7.04 ГБ

В этой теме нет новых непрочитанных сообщений. Удивительная Африка / Amazing Africa (2013) HDRip от Smart-Tracker | КПК

9 | 6

488.76 МБ

В этой теме нет новых непрочитанных сообщений. BBC. Планета. Африка / BBC. Earth. Africa [01-06 из 06] (2013) BDRip-AVC от -=HD-NET=-

46 | 8

5.46 ГБ

В этой теме нет новых непрочитанных сообщений. BBC: Африка / BBC: Africa [01-02 из 06] (2013) BDRip 720p от HDClub

3 | 2

6.87 ГБ

В этой теме нет новых непрочитанных сообщений. Африка / BBC: Africa [01-05 из 06] (2013) BDRip 720p от HDClub

8 | 5

17.27 ГБ




Вы не можете начинать темы
Вы не можете отвечать на сообщения
Вы не можете редактировать свои сообщения
Вы не можете удалять свои сообщения
Вы не можете добавлять вложения

Перейти:  
Для Мосгорсуда, Роскомнадзора и рекламодателей: mosgorsud-torrent[собачка]yandex.ru
 Вход
ppkBB3cker v.2 © 2008-2014 @ PPK
[ Time : 0.060s | 14 Queries | GZIP : Off ]

Торрент трекер RUTOR.IN, Не можете зайти на rutor.org? Какой новый адрес рутор? Какое зеркало рутор? Не работает rutor.org и зеркала? Тогда наш торрент специально для вас. Rutor.in неофициальное зеркало rutor. В случае если у Вас заблокирован rutor или вдруг Вы не можете на него зайти, то Вы без труда сможете скачать бесплатно и без рекламы последние новинки кино, игр, сериалов и прочего у нас, на Rutor.in. Не нужно использовать прокси, чтобы зайти на рутор, достаточно воспользоваться нашим ресурсом. Все новые фильмы, игры, сериалы, книги и музыка за 2013 и 2014 годы через торрент бесплатно. Скачивайте фильмы в хорошем качестве, игры для пк, xbox, playstation без регистрации. У нас вы найдете новые Зарубежные сериалы и Русские сериалы 2013, 2014, 2015 годов. Оставайтесь с нами, качайте любимые фильмы, игры, сериалы, книги и музыку.