img image001 image001 image001 image001 image001 image001 image001 image001 image001 image001 image001 image001 image001 image001 image001

Planets Sun Sun Sun
Статистика раздачи
Автор: Снежана | Размер: 431.17 МБ | Добавлен: 24 июл 2013
Раздают: 10    Качают: 1
Скачать торрент
Скачать торрент
Описание торрента

СообщениеДобавлено: 24 июл 2013 

#77

Информация о фильме
Оригинальное название: Вырваться из сети
Режиссер / Телекомпания: RT
Год выпуска: 2011
Жанр: Документальный
Всем кто интересуется документальной информацией и информацией для разума и ума и своего совершенствования. Рекомендую посетить мои раздачи:
Описание:
В апреле 2011 года был похищен сын основателя крупной российской компании, занимающейся интернет-безопасностью. По иронии судьбы повседневный маршрут Ивана Касперского от дома до работы похитители узнали, изучив его страничку «ВКонтакте». О тех, кто страдает от Интернета, о тех, кто его избегает, и кто пытается сделать его безопаснее.

Продолжительность: 00:23:13

Перевод: Многоголосый закадровый, профессиональный

Видеокодек: AVC
Битрейт видео: ~2 500 Kbps
Размер кадра: 852х480
Качество видео: DVDRip
Аудиокодек: AAC
Битрейт аудио: 100 Kbps
General
Format : MPEG-4
Format profile : Base Media
Codec ID : isom
File size : 431 MiB
Duration : 23mn 13s
Overall bit rate mode : Variable
Overall bit rate : 2 595 Kbps
Encoded date : UTC 2013-01-20 06:57:29
Tagged date : UTC 2013-01-20 06:57:29
Writing application : Lavf53.32.100

Video
ID : 1
Format : AVC
Format/Info : Advanced Video Codec
Format profile : Baseline@L3.0
Format settings, CABAC : No
Format settings, ReFrames : 3 frames
Codec ID : avc1
Codec ID/Info : Advanced Video Coding
Duration : 23mn 13s
Bit rate : 2 500 Kbps
Width : 852 pixels
Height : 480 pixels
Display aspect ratio : 16:9
Frame rate mode : Constant
Frame rate : 25.000 fps
Color space : YUV
Chroma subsampling : 4:2:0
Bit depth : 8 bits
Scan type : Progressive
Bits/(Pixel*Frame) : 0.245
Stream size : 414 MiB (96%)
Writing library : x264 core 120 r2151 a3f4407
Encoding settings : cabac=0 / ref=3 / deblock=1:0:0 / analyse=0x1:0x111 / me=hex / subme=7 / psy=0 / mixed_ref=0 / me_range=16 / chroma_me=1 / trellis=1 / 8x8dct=0 / cqm=0 / deadzone=21,11 / fast_pskip=0 / chroma_qp_offset=0 / threads=18 / sliced_threads=0 / nr=0 / decimate=1 / interlaced=0 / bluray_compat=0 / constrained_intra=0 / bframes=0 / weightp=0 / keyint=15 / keyint_min=1 / scenecut=40 / intra_refresh=0 / rc_lookahead=15 / rc=abr / mbtree=1 / bitrate=2500 / ratetol=1.0 / qcomp=0.60 / qpmin=0 / qpmax=69 / qpstep=4 / ip_ratio=1.40 / aq=1:1.00
Language : English
Encoded date : UTC 2013-01-20 06:57:29
Tagged date : UTC 2013-01-20 06:57:29

Audio
ID : 2
Format : AAC
Format/Info : Advanced Audio Codec
Format profile : LC
Codec ID : 40
Duration : 23mn 13s
Bit rate mode : Variable
Bit rate : 100 Kbps
Maximum bit rate : 320 Kbps
Channel(s) : 2 channels
Channel positions : Front: L R
Sampling rate : 44.1 KHz
Compression mode : Lossy
Stream size : 16.7 MiB (4%)
Language : English
Encoded date : UTC 2013-01-20 06:57:29
Tagged date : UTC 2013-01-20 06:57:29







   Похожие торренты   Торрент   Размер 
В этой теме нет новых непрочитанных сообщений. Уходя в отрыв / Вырваться вперед / Breaking Away (1979) DVDRip

7 | 6

1.14 ГБ

В этой теме нет новых непрочитанных сообщений. Вырваться из-под гнета (Смертельный удар) / Breakout from Oppression / Zui jia bo sha (1973) DVD5 | A

0 | 0

3.2 ГБ

В этой теме нет новых непрочитанных сообщений. Убийца в сети / Wandering Eye (2011) SATRip

0 | 2

699.79 МБ

В этой теме нет новых непрочитанных сообщений. Спецслужбы: троллинг в сети (2011) HDRip

2 | 3

268.32 МБ

В этой теме нет новых непрочитанных сообщений. Вне сети / Offline (2012) DVDRip | L2

149 | 29

2.03 ГБ

В этой теме нет новых непрочитанных сообщений. Сети зла / Dragnet (1987) DVDRip

29 | 3

1.37 ГБ

В этой теме нет новых непрочитанных сообщений. Хранители сети (2010) DVDRip | Лицензия

1 | 4

700.03 МБ




Вы не можете начинать темы
Вы не можете отвечать на сообщения
Вы не можете редактировать свои сообщения
Вы не можете удалять свои сообщения
Вы не можете добавлять вложения

Перейти:  
Для Мосгорсуда, Роскомнадзора и рекламодателей: mosgorsud-torrent[собачка]yandex.ru
 Вход
ppkBB3cker v.2 © 2008-2014 @ PPK
[ Time : 0.036s | 17 Queries | GZIP : Off ]

cron