img image001 image001 image001 image001 image001 image001 image001 image001 image001 image001 image001 image001 image001 image001 image001

Planets Sun Sun Sun
Статистика раздачи
Автор: Снежана | Размер: 24.02 ГБ | Добавлен: 25 июл 2013
Раздают: 22    Качают: 15
Скачать торрент
Скачать торрент
Описание торрента

СообщениеДобавлено: 25 июл 2013 

#77

Информация о фильме
Название: BBC: Планета Земля
Оригинальное название: BBC: Planet Earth
Год выхода: 2006
Жанр: Документальный
Режиссер: Аластер Фозергилл
В ролях: Дэвид Аттэнборо, Мике Холдинг, Таня Энкинс, Мичаел Келем, Марк Линфилд, Петер Перлстеин

Сюжет фильма:

Создатели отмеченного многократными наградами документального сериала "Голубая планета" сделали новый фильм, показывающий Землю такой, какой ее еще никто не видел прежде. Невероятные по красоте пейзажи и очаровательная дикая природа самых заповедных и малоизученных уголков нашей планеты. Земля предстает во всем своем многообразии, рассказывая самые сокровенные свои тайны. Четыре года создания, беспрецедентный для документального фильма бюджет ($25 000 000), революционные режимы сверхскоростной съемки и детализации картинки, позволяющие во всех подробностях увидеть великолепие природы.




01. От полюса до полюса / From Pole to Pole
Сто лет назад население Земли составляло 1,5 миллиарда человек, а сегодня на хрупкой планете нас больше 6 миллиардов. И, тем не менее, на Земле еще остались места, где еще не ступала нога человека. В этой серии вы увидите последние нетронутые уголки дикой природы, какими вы их еще никогда не видели.
02. Горы / Mountains
На свой страх и риск люди поднимаются на самые высокие вершины планеты. Некоторые считают, что, взбираясь на большую гору, они покоряют ее. Но на самом деле мы здесь только гости. Это холодный, чуждый нам мир неземной красоты...
03. Пресная вода / Fresh Water
Пресная вода составляет всего 3% от общих запасов воды на нашей планете, но бесценные источники пресной воды преподносят много сюрпризов. Вся жизнь на Земле в конечном счете зависит от пресной воды.
04. Пещеры / Caves
Это один из самых неизведанных рубежей нашей планеты. Таинственный мир заглянуть в который отваживаются только самые отважные смельчаки. Мир в котором под нашими ногами на многие километры тянутся лабиринты пещер и тоннелей.
05. Пустыни / Deserts
Пустыни занимают треть поверхности суши Земли. Огромные рубцы на лице планеты кажутся безжизненными. Но, как ни странно, это не так. Во всех пустынях всегда была и продолжается жизнь.
06. Ледяные миры / Ice Worlds
Оба полюса нашей планеты покрыты льдом. Это самые обширные и самые суровые пустыни в мире. Больше нигде в мире смена времен года не происходит так резко как здесь. Каждый год льды наступают и отступают. Вся жизнь на полюсах зависит от этого.
07. Великие равнины / Great Plains
Обширные безлесные равнины, бескрайние просторы, тишина: Но ощущение пустоты это иллюзия. Равнины нашей планеты дают пищу самым многочисленным скоплениям животных на Земле.
08. Джунгли / Jungles
Это оранжерея нашей планеты. Влажные тропические леса занимают лишь 3% поверхности суши, однако в них обитает больше половины биологических видов планеты. Каким же образом здесь уживается такое невиданное множество разнообразных растений и животных?
09. Мелководные моря / Shallow Seas
Континенты нашей планеты окружены мелководными морями. Их глубина редко превышает более 200 метров, ведь они расположены на континентальных шельфах, а шельфы иногда простираются на сотни километров до своего обрыва в темные глубины. Мелководные моря составляют лишь 8% поверхности мирового океана, но в них обитает подавляющее большинство морских животных.
10. Сезонные леса / Seasonal Forests
Деревья, бесспорно, самые величественные из всех живых существ. Некоторые из них являются самыми крупными живыми организмами на Земле и это самые высокие деревья в мире. Лиственные и хвойные деревья, растущие в сезонных областях нашей планеты, образуют самые обширные леса на Земле. Их размеры поражают воображение.
11. Глубины океанов / Ocean Deep
Мир за пределами суши. Океан. Он покрывает 2/3 земной поверхности, при этом большая его часть для нас недосягаема. Жизнь обитателей океанских глубин проходит в постоянных поисках пищи и в борьбе за выживание.


Выпущено: Великобритания, Германия, Канада, Япония, США
Продолжительность: 11 х ~ 00:51:00
Перевод: Профессиональный (одноголосный) - Текст читает - Академик Российской академии естественных наук (РАЕН) Николай Дроздов
Субтитры: нет

Файл
Качество: BDRip 720p (исходник Blu-ray Disc)
Видео: 1280x720, ~5900 Кбит/сек, 23.976 кадр/сек, AVC, x264, ~ 0.268 Бит/(Пиксели*Кадры), 2-pass
Аудио: AC-3, 192 Кбит/сек, 2 канала(ов), 48,0 КГц
Чаптеры: нет




Format : Matroska
Format version : Version 4 / Version 2
File size : 2.18 GiB
Duration : 51mn 16s
Overall bit rate : 6 094 Kbps
Movie name : ВВС: Планета Земля.(01. От полюса до полюса).(2006).BDRip.720p.NOLIMITS-TEAM
Encoded date : UTC 2013-01-21 09:05:18
Writing application : mkvmerge v5.9.0 ('On The Loose') built on Dec 31 2012 17:36:59
Writing library : libebml v1.3.0 + libmatroska v1.4.0

Video
ID : 1
Format : AVC
Format/Info : Advanced Video Codec
Format profile : High@L4.1
Format settings, CABAC : Yes
Format settings, ReFrames : 9 frames
Codec ID : V_MPEG4/ISO/AVC
Duration : 51mn 16s
Bit rate : 5 917 Kbps
Width : 1 280 pixels
Height : 720 pixels
Display aspect ratio : 16:9
Frame rate mode : Constant
Frame rate : 23.976 fps
Color space : YUV
Chroma subsampling : 4:2:0
Bit depth : 8 bits
Scan type : Progressive
Bits/(Pixel*Frame) : 0.268
Stream size : 2.07 GiB (95%)
Title : ВВС: Планета Земля (01. От полюса до полюса) (2006) BDRip 720p от NOLIMITS-TEAM
Writing library : x264 core 129 r2230 1cffe9f
Encoding settings : cabac=1 / ref=9 / deblock=1:0:0 / analyse=0x3:0x113 / me=umh / subme=10 / psy=1 / psy_rd=1.00:0.10 / mixed_ref=1 / me_range=32 / chroma_me=1 / trellis=2 / 8x8dct=1 / cqm=0 / deadzone=21,11 / fast_pskip=0 / chroma_qp_offset=-3 / threads=6 / lookahead_threads=1 / sliced_threads=0 / nr=0 / decimate=0 / interlaced=0 / bluray_compat=0 / constrained_intra=0 / bframes=5 / b_pyramid=2 / b_adapt=2 / b_bias=0 / direct=3 / weightb=1 / open_gop=0 / weightp=2 / keyint=240 / keyint_min=24 / scenecut=40 / intra_refresh=0 / rc_lookahead=60 / rc=2pass / mbtree=1 / bitrate=5917 / ratetol=1.0 / qcomp=0.60 / qpmin=0 / qpmax=51 / qpstep=4 / cplxblur=20.0 / qblur=0.5 / ip_ratio=1.40 / aq=1:1.00
Language : English
Default : Yes
Forced : No

Audio
ID : 2
Format : AC-3
Format/Info : Audio Coding 3
Format profile : Dolby Digital
Mode extension : CM (complete main)
Format settings, Endianness : Big
Codec ID : A_AC3
Duration : 51mn 16s
Bit rate mode : Constant
Bit rate : 192 Kbps
Channel(s) : 2 channels
Channel positions : Front: L R
Sampling rate : 48.0 KHz
Bit depth : 16 bits
Compression mode : Lossy
Stream size : 70.4 MiB (3%)
Title : Профессиональный (одноголосный) - Николай Дроздов
Language : Russian
Default : Yes
Forced : No



Релиз Группа: Автор Рипа:



   Похожие торренты   Торрент   Размер 
В этой теме нет новых непрочитанных сообщений. BBC: Планета Земля / BBC Planet Earth (2006) HDDVDRip 720p

7 | 48

23.7 ГБ

В этой теме нет новых непрочитанных сообщений. BBC: Планета Земля / BBC: Planet Earth (2006) BDRip 1080p

389 | 76

28.68 ГБ

В этой теме нет новых непрочитанных сообщений. Земля: Мощь планеты / Earth: The Power of the Planet (2007) BDRip 720p от NOLIMITS-TEAM

3 | 2

11.06 ГБ

В этой теме нет новых непрочитанных сообщений. Планета Земля / BBC: Planet Earth (2006) Blu-ray 1080p

52 | 16

85.2 ГБ

В этой теме нет новых непрочитанных сообщений. BBC: Планета Земля 2 / Planet Earth II [01-05 из 06] (2016) BDRip 720p | Р2

0 | 0

17.48 ГБ

В этой теме нет новых непрочитанных сообщений. BBC: Планета Земля / BBC:Planet Earth [11 серий из 11]. (2006) HDRip от R.G.RealMT l Р1

277 | 50

9.13 ГБ

В этой теме нет новых непрочитанных сообщений. Планета Земля 2 / Planet Earth II [01x01 из 06] (2016) BDRip 720p | JimmyJ

182 | 67

2.23 ГБ




Вы не можете начинать темы
Вы не можете отвечать на сообщения
Вы не можете редактировать свои сообщения
Вы не можете удалять свои сообщения
Вы не можете добавлять вложения

Перейти:  
Для Мосгорсуда, Роскомнадзора и рекламодателей: mosgorsud-torrent[собачка]yandex.ru
 Вход
ppkBB3cker v.2 © 2008-2014 @ PPK
[ Time : 0.034s | 14 Queries | GZIP : Off ]

Торрент трекер RUTOR.IN, Не можете зайти на rutor.org? Какой новый адрес рутор? Какое зеркало рутор? Не работает rutor.org и зеркала? Тогда наш торрент специально для вас. Rutor.in неофициальное зеркало rutor. В случае если у Вас заблокирован rutor или вдруг Вы не можете на него зайти, то Вы без труда сможете скачать бесплатно и без рекламы последние новинки кино, игр, сериалов и прочего у нас, на Rutor.in. Не нужно использовать прокси, чтобы зайти на рутор, достаточно воспользоваться нашим ресурсом. Все новые фильмы, игры, сериалы, книги и музыка за 2013 и 2014 годы через торрент бесплатно. Скачивайте фильмы в хорошем качестве, игры для пк, xbox, playstation без регистрации. У нас вы найдете новые Зарубежные сериалы и Русские сериалы 2013, 2014, 2015 годов. Оставайтесь с нами, качайте любимые фильмы, игры, сериалы, книги и музыку.