img image001 image001 image001 image001 image001 image001 image001 image001 image001 image001 image001 image001 image001 image001 image001

Planets Sun Sun Sun
Статистика раздачи
Автор: Снежана | Размер: 1.05 ГБ | Добавлен: 25 июл 2013
Раздают: 23    Качают: 4
Скачать торрент
Скачать торрент
Описание торрента

СообщениеДобавлено: 25 июл 2013 


Инфомация о фильме
Оригинальное название: Неизвестные самолёты
Год выхода: 2012
Жанр: Научно-популярный фильм.
Режиссер: Андрей Кулясов
О фильме
Этот фильм рассказывает о неизвестных широкой публике отечественных летательных аппаратах.

Фильм 1.
Сейчас все хорошо знают, как выглядит самолёт. Крыло. Фюзеляж. Шасси. По внешнему виду можно определить и то, к какому классу относится летательный аппарат.
Чтобы создать современные машины мировая школа авиастроения проделала огромный путь. Тысячи экспериментов и испытательных полётов, сотни опытных и экспериментальных летательных аппаратов. Какое выбрать шасси? Где установить крыло? Как расположить двигатели? В небо поднимались аппараты, которые и сейчас могут вызвать удивление. А были машины, которые, яляясь передовыми по многим показателям, так и остались в единичных экземплярах. О них не так широко известно, хотя их вклад в прогресс авиации огромен...
Фильм 2.
В авиации одним из способов познания нового являются лётные исследования. Согласно определению лётные исследования - это физтческий эксперимент в натурных условиях, проще говоря - в полёте. Особое значение лётные исследования приобретают при создании летательных аппаратов принципиально новых схем.
Обычно для лётных исследований привлекают специальные летательные аппараты. Это могут быть как серийные машины, переоборудованные соответствующим образом, так и вновь созданные. К таковым относятся экспериментальные летательные аппараты...

Страна: Россия
Студия: Студия "Крылья России"
Продолжительность: 2x ~ 00:38:00
Перевод: Не требуется
Файл
Формат: MKV
Качество: DVDRip-AVC
Видео: MPEG4 AVC 1024 x 576, 23.976 fps, 1750 - 1976 Кбит/сек
Звук: AC-3, 2 ch, 224 Кб/сек
Субтитры: Нет

General
Unique ID : 208166872276386663083376643150600282279 (0x9C9B7B34D0CD64FC861E4E02E66920A7)
Complete name : D:DownloadsNeizvestnie.Samoljoti.2012.x264.DVDRip.(AVC).by.Тorrent-Хzona.torrent1.mkv
Format : Matroska
Format version : Version 2
File size : 540 MiB
Duration : 38mn 12s
Overall bit rate : 1 976 Kbps
Encoded date : UTC 2013-06-02 00:44:15
Writing application : mkvmerge v6.1.0 ('Old Devil') built on Mar 4 2013 09:10:42
Writing library : libebml v1.3.0 + libmatroska v1.4.0
Video
ID : 1
Format : AVC
Format/Info : Advanced Video Codec
Format profile : High@L4.1
Format settings, CABAC : Yes
Format settings, ReFrames : 4 frames
Codec ID : V_MPEG4/ISO/AVC
Duration : 38mn 12s
Bit rate : 1 750 Kbps
Width : 1 024 pixels
Height : 576 pixels
Display aspect ratio : 16:9
Frame rate mode : Constant
Frame rate : 25.000 fps
Color space : YUV
Chroma subsampling : 4:2:0
Bit depth : 8 bits
Scan type : Progressive
Bits/(Pixel*Frame) : 0.119
Stream size : 468 MiB (87%)
Writing library : x264 core 130 r2273 b3065e6
Encoding settings : cabac=1 / ref=3 / deblock=1:-2:-2 / analyse=0x3:0x111 / me=umh / subme=9 / psy=1 / psy_rd=1.00:0.15 / mixed_ref=1 / me_range=32 / chroma_me=1 / trellis=2 / 8x8dct=1 / cqm=0 / deadzone=21,11 / fast_pskip=0 / chroma_qp_offset=-3 / threads=3 / lookahead_threads=1 / sliced_threads=0 / nr=0 / decimate=1 / interlaced=0 / bluray_compat=0 / constrained_intra=0 / bframes=3 / b_pyramid=2 / b_adapt=0 / b_bias=0 / direct=1 / weightb=1 / open_gop=0 / weightp=2 / keyint=250 / keyint_min=25 / scenecut=40 / intra_refresh=0 / rc_lookahead=50 / rc=2pass / mbtree=1 / bitrate=1750 / ratetol=1.0 / qcomp=0.60 / qpmin=0 / qpmax=69 / qpstep=4 / cplxblur=20.0 / qblur=0.5 / ip_ratio=1.40 / aq=1:1.00
Default : Yes
Forced : No
Audio
ID : 2
Format : AC-3
Format/Info : Audio Coding 3
Mode extension : CM (complete main)
Format settings, Endianness : Big
Codec ID : A_AC3
Duration : 38mn 12s
Bit rate mode : Constant
Bit rate : 224 Kbps
Channel(s) : 2 channels
Channel positions : Front: L R
Sampling rate : 48.0 KHz
Bit depth : 16 bits
Compression mode : Lossy
Stream size : 61.2 MiB (11%)
Default : Yes
Forced : No



Релиз от: &



   Похожие торренты   Торрент   Размер 
В этой теме нет новых непрочитанных сообщений. Неизвестные самолёты (2012) DVDRip от -=HD-NET=-

19 | 4

1003.07 МБ

В этой теме нет новых непрочитанных сообщений. Крылья России. Советские самолеты. Фронтовой бомбардировщик Як-28 (2007) DVDRip-AVC от Тorrent-Хzona

12 | 2

1010.23 МБ

В этой теме нет новых непрочитанных сообщений. Ялта-45 [01-04 из 4] (2012) DVDRip-AVC от Тorrent-Хzona

8 | 3

2.68 ГБ

В этой теме нет новых непрочитанных сообщений. Мир электронного рабства (2012) DVDRip-AVC от Тorrent-Хzona

1 | 2

3.95 ГБ

В этой теме нет новых непрочитанных сообщений. Выдающиеся авиаконструкторы [1-12 из 12] (2012) DVDRip-AVC от Тorrent-Хzona

15 | 1

6.21 ГБ

В этой теме нет новых непрочитанных сообщений. ''Дело'' Иосифа Сталина [01-12 из 12] (2012) DVDRip-AVC от Тorrent-Хzona

18 | 2

4.58 ГБ

В этой теме нет новых непрочитанных сообщений. Происхождение иллюминатов и Неосталинизм (2012) DVDRip-AVC от Тorrent-Хzona

3 | 2

2.4 ГБ




Вы не можете начинать темы
Вы не можете отвечать на сообщения
Вы не можете редактировать свои сообщения
Вы не можете удалять свои сообщения
Вы не можете добавлять вложения

Перейти:  
Для Мосгорсуда, Роскомнадзора и рекламодателей: mosgorsud-torrent[собачка]yandex.ru
 Вход
ppkBB3cker v.2 © 2008-2014 @ PPK
[ Time : 0.056s | 14 Queries | GZIP : Off ]

Торрент трекер RUTOR.IN, Не можете зайти на rutor.org? Какой новый адрес рутор? Какое зеркало рутор? Не работает rutor.org и зеркала? Тогда наш торрент специально для вас. Rutor.in неофициальное зеркало rutor. В случае если у Вас заблокирован rutor или вдруг Вы не можете на него зайти, то Вы без труда сможете скачать бесплатно и без рекламы последние новинки кино, игр, сериалов и прочего у нас, на Rutor.in. Не нужно использовать прокси, чтобы зайти на рутор, достаточно воспользоваться нашим ресурсом. Все новые фильмы, игры, сериалы, книги и музыка за 2013 и 2014 годы через торрент бесплатно. Скачивайте фильмы в хорошем качестве, игры для пк, xbox, playstation без регистрации. У нас вы найдете новые Зарубежные сериалы и Русские сериалы 2013, 2014, 2015 годов. Оставайтесь с нами, качайте любимые фильмы, игры, сериалы, книги и музыку.